  0
SECTION
  2
HEADER
  9
$ACADVER
  1
AC1015
  9
$ACADMAINTVER
 70
    20
  9
$DWGCODEPAGE
  3
ANSI_932
  9
$INSBASE
 10
0.0
 20
0.0
 30
0.0
  9
$EXTMIN
 10
104.0
 20
4.0
 30
0.0
  9
$EXTMAX
 10
2784.0
 20
2024.0
 30
0.0
  9
$LIMMIN
 10
0.0
 20
0.0
  9
$LIMMAX
 10
29700.0
 20
21000.0
  9
$ORTHOMODE
 70
     1
  9
$REGENMODE
 70
     1
  9
$FILLMODE
 70
     1
  9
$QTEXTMODE
 70
     0
  9
$MIRRTEXT
 70
     1
  9
$LTSCALE
 40
4.0
  9
$ATTMODE
 70
     1
  9
$TEXTSIZE
 40
25.0
  9
$TRACEWID
 40
1.0
  9
$TEXTSTYLE
  7
Standard
  9
$CLAYER
  8
実形
  9
$CELTYPE
  6
ByLayer
  9
$CECOLOR
 62
   256
  9
$CELTSCALE
 40
1.0
  9
$DISPSILH
 70
     0
  9
$DIMSCALE
 40
1.0
  9
$DIMASZ
 40
35.0
  9
$DIMEXO
 40
65.0
  9
$DIMDLI
 40
3.75
  9
$DIMRND
 40
0.0
  9
$DIMDLE
 40
0.0
  9
$DIMEXE
 40
0.0
  9
$DIMTP
 40
0.0
  9
$DIMTM
 40
0.0
  9
$DIMTXT
 40
25.0
  9
$DIMCEN
 40
2.5
  9
$DIMTSZ
 40
0.0
  9
$DIMTOL
 70
     0
  9
$DIMLIM
 70
     0
  9
$DIMTIH
 70
     0
  9
$DIMTOH
 70
     0
  9
$DIMSE1
 70
     0
  9
$DIMSE2
 70
     0
  9
$DIMTAD
 70
     1
  9
$DIMZIN
 70
     8
  9
$DIMBLK
  1
DotSmall
  9
$DIMASO
 70
     1
  9
$DIMSHO
 70
     1
  9
$DIMPOST
  1

  9
$DIMAPOST
  1

  9
$DIMALT
 70
     0
  9
$DIMALTD
 70
     3
  9
$DIMALTF
 40
0.03937007874016
  9
$DIMLFAC
 40
1.0
  9
$DIMTOFL
 70
     1
  9
$DIMTVP
 40
0.0
  9
$DIMTIX
 70
     0
  9
$DIMSOXD
 70
     0
  9
$DIMSAH
 70
     0
  9
$DIMBLK1
  1

  9
$DIMBLK2
  1

  9
$DIMSTYLE
  2
ISO-25
  9
$DIMCLRD
 70
     0
  9
$DIMCLRE
 70
     0
  9
$DIMCLRT
 70
     0
  9
$DIMTFAC
 40
1.0
  9
$DIMGAP
 40
6.25
  9
$DIMJUST
 70
     0
  9
$DIMSD1
 70
     0
  9
$DIMSD2
 70
     0
  9
$DIMTOLJ
 70
     0
  9
$DIMTZIN
 70
     8
  9
$DIMALTZ
 70
     0
  9
$DIMALTTZ
 70
     0
  9
$DIMUPT
 70
     0
  9
$DIMDEC
 70
     2
  9
$DIMTDEC
 70
     2
  9
$DIMALTU
 70
     2
  9
$DIMALTTD
 70
     3
  9
$DIMTXSTY
  7
Standard
  9
$DIMAUNIT
 70
     0
  9
$DIMADEC
 70
     0
  9
$DIMALTRND
 40
0.0
  9
$DIMAZIN
 70
     0
  9
$DIMDSEP
 70
    46
  9
$DIMATFIT
 70
     3
  9
$DIMFRAC
 70
     0
  9
$DIMLDRBLK
  1
Open30
  9
$DIMLUNIT
 70
     2
  9
$DIMLWD
 70
    18
  9
$DIMLWE
 70
    18
  9
$DIMTMOVE
 70
     0
  9
$LUNITS
 70
     2
  9
$LUPREC
 70
     2
  9
$SKETCHINC
 40
1.0
  9
$FILLETRAD
 40
30.0
  9
$AUNITS
 70
     0
  9
$AUPREC
 70
     0
  9
$MENU
  1
.
  9
$ELEVATION
 40
0.0
  9
$PELEVATION
 40
0.0
  9
$THICKNESS
 40
0.0
  9
$LIMCHECK
 70
     1
  9
$CHAMFERA
 40
10.0
  9
$CHAMFERB
 40
10.0
  9
$CHAMFERC
 40
20.0
  9
$CHAMFERD
 40
0.0
  9
$SKPOLY
 70
     0
  9
$TDCREATE
 40
2451673.575802199
  9
$TDUCREATE
 40
2451673.200802199
  9
$TDUPDATE
 40
2458807.485753426
  9
$TDUUPDATE
 40
2458807.110753426
  9
$TDINDWG
 40
0.7961798727
  9
$TDUSRTIMER
 40
0.7961791782
  9
$USRTIMER
 70
     1
  9
$ANGBASE
 50
0.0
  9
$ANGDIR
 70
     0
  9
$PDMODE
 70
     3
  9
$PDSIZE
 40
0.0
  9
$PLINEWID
 40
0.0
  9
$SPLFRAME
 70
     0
  9
$SPLINETYPE
 70
     6
  9
$SPLINESEGS
 70
     8
  9
$HANDSEED
  5
1232
  9
$SURFTAB1
 70
     6
  9
$SURFTAB2
 70
     6
  9
$SURFTYPE
 70
     6
  9
$SURFU
 70
     6
  9
$SURFV
 70
     6
  9
$UCSBASE
  2

  9
$UCSNAME
  2

  9
$UCSORG
 10
0.0
 20
0.0
 30
0.0
  9
$UCSXDIR
 10
1.0
 20
0.0
 30
0.0
  9
$UCSYDIR
 10
0.0
 20
1.0
 30
0.0
  9
$UCSORTHOREF
  2

  9
$UCSORTHOVIEW
 70
     0
  9
$UCSORGTOP
 10
0.0
 20
0.0
 30
0.0
  9
$UCSORGBOTTOM
 10
0.0
 20
0.0
 30
0.0
  9
$UCSORGLEFT
 10
0.0
 20
0.0
 30
0.0
  9
$UCSORGRIGHT
 10
0.0
 20
0.0
 30
0.0
  9
$UCSORGFRONT
 10
0.0
 20
0.0
 30
0.0
  9
$UCSORGBACK
 10
0.0
 20
0.0
 30
0.0
  9
$PUCSBASE
  2

  9
$PUCSNAME
  2

  9
$PUCSORG
 10
0.0
 20
0.0
 30
0.0
  9
$PUCSXDIR
 10
1.0
 20
0.0
 30
0.0
  9
$PUCSYDIR
 10
0.0
 20
1.0
 30
0.0
  9
$PUCSORTHOREF
  2

  9
$PUCSORTHOVIEW
 70
     0
  9
$PUCSORGTOP
 10
0.0
 20
0.0
 30
0.0
  9
$PUCSORGBOTTOM
 10
0.0
 20
0.0
 30
0.0
  9
$PUCSORGLEFT
 10
0.0
 20
0.0
 30
0.0
  9
$PUCSORGRIGHT
 10
0.0
 20
0.0
 30
0.0
  9
$PUCSORGFRONT
 10
0.0
 20
0.0
 30
0.0
  9
$PUCSORGBACK
 10
0.0
 20
0.0
 30
0.0
  9
$USERI1
 70
     0
  9
$USERI2
 70
     0
  9
$USERI3
 70
     0
  9
$USERI4
 70
     0
  9
$USERI5
 70
     0
  9
$USERR1
 40
0.0
  9
$USERR2
 40
0.0
  9
$USERR3
 40
0.0
  9
$USERR4
 40
0.0
  9
$USERR5
 40
0.0
  9
$WORLDVIEW
 70
     1
  9
$SHADEDGE
 70
     3
  9
$SHADEDIF
 70
    70
  9
$TILEMODE
 70
     1
  9
$MAXACTVP
 70
    64
  9
$PINSBASE
 10
0.0
 20
0.0
 30
0.0
  9
$PLIMCHECK
 70
     0
  9
$PEXTMIN
 10
27.8447512626648
 20
20.24591643810271
 30
0.0
  9
$PEXTMAX
 10
250.6027613639831
 20
182.2132479429245
 30
0.0
  9
$PLIMMIN
 10
-3.757080078125
 20
-3.757083177566528
  9
$PLIMMAX
 10
293.2112426757813
 20
206.2162444591522
  9
$UNITMODE
 70
     0
  9
$VISRETAIN
 70
     1
  9
$PLINEGEN
 70
     0
  9
$PSLTSCALE
 70
     1
  9
$TREEDEPTH
 70
  3020
  9
$CMLSTYLE
  2
Standard
  9
$CMLJUST
 70
     0
  9
$CMLSCALE
 40
20.0
  9
$PROXYGRAPHICS
 70
     1
  9
$MEASUREMENT
 70
     1
  9
$CELWEIGHT
370
    -1
  9
$ENDCAPS
280
     0
  9
$JOINSTYLE
280
     0
  9
$LWDISPLAY
290
     0
  9
$INSUNITS
 70
     4
  9
$HYPERLINKBASE
  1

  9
$STYLESHEET
  1

  9
$XEDIT
290
     1
  9
$CEPSNTYPE
380
     0
  9
$PSTYLEMODE
290
     1
  9
$FINGERPRINTGUID
  2
{C8EA1F16-24C9-11D4-9416-CE0A3B32152F}
  9
$VERSIONGUID
  2
{334C543B-3EE4-4972-8284-D74C9DC74B42}
  9
$EXTNAMES
290
     1
  9
$PSVPSCALE
 40
0.0
  9
$OLESTARTUP
290
     0
  0
ENDSEC
  0
SECTION
  2
CLASSES
  0
CLASS
  1
ACDBDICTIONARYWDFLT
  2
AcDbDictionaryWithDefault
  3
ObjectDBX Classes
 90
        0
280
     0
281
     0
  0
CLASS
  1
ACDBPLACEHOLDER
  2
AcDbPlaceHolder
  3
ObjectDBX Classes
 90
        0
280
     0
281
     0
  0
CLASS
  1
LAYOUT
  2
AcDbLayout
  3
ObjectDBX Classes
 90
        0
280
     0
281
     0
  0
CLASS
  1
TABLESTYLE
  2
AcDbTableStyle
  3
ObjectDBX Classes
 90
     2047
280
     0
281
     0
  0
CLASS
  1
DICTIONARYVAR
  2
AcDbDictionaryVar
  3
ObjectDBX Classes
 90
        0
280
     0
281
     0
  0
CLASS
  1
SORTENTSTABLE
  2
AcDbSortentsTable
  3
ObjectDBX Classes
 90
        0
280
     0
281
     0
  0
ENDSEC
  0
SECTION
  2
TABLES
  0
TABLE
  2
VPORT
  5
8
330
0
100
AcDbSymbolTable
 70
     3
  0
VPORT
  5
1226
330
8
100
AcDbSymbolTableRecord
100
AcDbViewportTableRecord
  2
*Active
 70
     0
 10
0.0
 20
0.0
 11
1.0
 21
1.0
 12
1462.357651533405
 22
946.1283425062083
 13
0.0
 23
0.0
 14
10.0
 24
10.0
 15
10.0
 25
10.0
 16
0.0
 26
0.0
 36
1.0
 17
0.0
 27
0.0
 37
0.0
 40
2382.334654180753
 41
1.29038112522686
 42
50.0
 43
0.0
 44
0.0
 50
0.0
 51
0.0
 71
     0
 72
   100
 73
     1
 74
     3
 75
     0
 76
     0
 77
     0
 78
     0
281
     0
 65
     1
110
0.0
120
0.0
130
0.0
111
1.0
121
0.0
131
0.0
112
0.0
122
1.0
132
0.0
 79
     0
146
0.0
  0
ENDTAB
  0
TABLE
  2
LTYPE
  5
5
330
0
100
AcDbSymbolTable
 70
    46
  0
LTYPE
  5
14
330
5
100
AcDbSymbolTableRecord
100
AcDbLinetypeTableRecord
  2
ByBlock
 70
     0
  3

 72
    65
 73
     0
 40
0.0
  0
LTYPE
  5
15
330
5
100
AcDbSymbolTableRecord
100
AcDbLinetypeTableRecord
  2
ByLayer
 70
     0
  3

 72
    65
 73
     0
 40
0.0
  0
LTYPE
  5
16
330
5
100
AcDbSymbolTableRecord
100
AcDbLinetypeTableRecord
  2
Continuous
 70
     0
  3
Solid line
 72
    65
 73
     0
 40
0.0
  0
LTYPE
  5
34
330
5
100
AcDbSymbolTableRecord
100
AcDbLinetypeTableRecord
  2
ACAD_ISO02W100
 70
     0
  3
ISO dash __ __ __ __ __ __ __ __ __ __ __ __ __
 72
    65
 73
     2
 40
15.0
 49
12.0
 74
     0
 49
-3.0
 74
     0
  0
LTYPE
  5
35
330
5
100
AcDbSymbolTableRecord
100
AcDbLinetypeTableRecord
  2
ACAD_ISO03W100
 70
     0
  3
ISO dash space __    __    __    __    __    __
 72
    65
 73
     2
 40
30.0
 49
12.0
 74
     0
 49
-18.0
 74
     0
  0
LTYPE
  5
36
330
5
100
AcDbSymbolTableRecord
100
AcDbLinetypeTableRecord
  2
ACAD_ISO04W100
 70
     0
  3
ISO long-dash dot ____ . ____ . ____ . ____ . _
 72
    65
 73
     4
 40
30.0
 49
24.0
 74
     0
 49
-3.0
 74
     0
 49
0.0
 74
     0
 49
-3.0
 74
     0
  0
LTYPE
  5
37
330
5
100
AcDbSymbolTableRecord
100
AcDbLinetypeTableRecord
  2
ACAD_ISO05W100
 70
     0
  3
ISO long-dash double-dot ____ .. ____ .. ____ .
 72
    65
 73
     6
 40
34.0
 49
24.0
 74
     0
 49
-3.0
 74
     0
 49
0.5
 74
     0
 49
-3.0
 74
     0
 49
0.5
 74
     0
 49
-3.0
 74
     0
  0
LTYPE
  5
38
330
5
100
AcDbSymbolTableRecord
100
AcDbLinetypeTableRecord
  2
ACAD_ISO06W100
 70
     0
  3
ISO long-dash triple-dot ____ ... ____ ... ____
 72
    65
 73
     8
 40
37.5
 49
24.0
 74
     0
 49
-3.0
 74
     0
 49
0.5
 74
     0
 49
-3.0
 74
     0
 49
0.5
 74
     0
 49
-3.0
 74
     0
 49
0.5
 74
     0
 49
-3.0
 74
     0
  0
LTYPE
  5
39
330
5
100
AcDbSymbolTableRecord
100
AcDbLinetypeTableRecord
  2
ACAD_ISO07W100
 70
     0
  3
ISO dot . . . . . . . . . . . . . . . . . . . .
 72
    65
 73
     2
 40
3.0
 49
0.0
 74
     0
 49
-3.0
 74
     0
  0
LTYPE
  5
3A
330
5
100
AcDbSymbolTableRecord
100
AcDbLinetypeTableRecord
  2
ACAD_ISO08W100
 70
     0
  3
ISO long-dash short-dash ____ __ ____ __ ____ _
 72
    65
 73
     4
 40
36.0
 49
24.0
 74
     0
 49
-3.0
 74
     0
 49
6.0
 74
     0
 49
-3.0
 74
     0
  0
LTYPE
  5
3B
330
5
100
AcDbSymbolTableRecord
100
AcDbLinetypeTableRecord
  2
ACAD_ISO09W100
 70
     0
  3
ISO long-dash double-short-dash ____ __ __ ____
 72
    65
 73
     6
 40
45.0
 49
24.0
 74
     0
 49
-3.0
 74
     0
 49
6.0
 74
     0
 49
-3.0
 74
     0
 49
6.0
 74
     0
 49
-3.0
 74
     0
  0
LTYPE
  5
3C
330
5
100
AcDbSymbolTableRecord
100
AcDbLinetypeTableRecord
  2
ACAD_ISO10W100
 70
     0
  3
ISO dash dot __ . __ . __ . __ . __ . __ . __ .
 72
    65
 73
     4
 40
18.0
 49
12.0
 74
     0
 49
-3.0
 74
     0
 49
0.0
 74
     0
 49
-3.0
 74
     0
  0
LTYPE
  5
3D
330
5
100
AcDbSymbolTableRecord
100
AcDbLinetypeTableRecord
  2
ACAD_ISO11W100
 70
     0
  3
ISO double-dash dot __ __ . __ __ . __ __ . __ 
 72
    65
 73
     6
 40
33.0
 49
12.0
 74
     0
 49
-3.0
 74
     0
 49
12.0
 74
     0
 49
-3.0
 74
     0
 49
0.0
 74
     0
 49
-3.0
 74
     0
  0
LTYPE
  5
3E
330
5
100
AcDbSymbolTableRecord
100
AcDbLinetypeTableRecord
  2
ACAD_ISO12W100
 70
     0
  3
ISO dash double-dot __ . . __ . . __ . . __ . .
 72
    65
 73
     6
 40
21.0
 49
12.0
 74
     0
 49
-3.0
 74
     0
 49
0.0
 74
     0
 49
-3.0
 74
     0
 49
0.0
 74
     0
 49
-3.0
 74
     0
  0
LTYPE
  5
3F
330
5
100
AcDbSymbolTableRecord
100
AcDbLinetypeTableRecord
  2
ACAD_ISO13W100
 70
     0
  3
ISO double-dash double-dot __ __ . . __ __ . . 
 72
    65
 73
     8
 40
36.0
 49
12.0
 74
     0
 49
-3.0
 74
     0
 49
12.0
 74
     0
 49
-3.0
 74
     0
 49
0.0
 74
     0
 49
-3.0
 74
     0
 49
0.0
 74
     0
 49
-3.0
 74
     0
  0
LTYPE
  5
40
330
5
100
AcDbSymbolTableRecord
100
AcDbLinetypeTableRecord
  2
ACAD_ISO14W100
 70
     0
  3
ISO dash triple-dot __ . . . __ . . . __ . . . 
 72
    65
 73
     8
 40
24.0
 49
12.0
 74
     0
 49
-3.0
 74
     0
 49
0.0
 74
     0
 49
-3.0
 74
     0
 49
0.0
 74
     0
 49
-3.0
 74
     0
 49
0.0
 74
     0
 49
-3.0
 74
     0
  0
LTYPE
  5
41
330
5
100
AcDbSymbolTableRecord
100
AcDbLinetypeTableRecord
  2
ACAD_ISO15W100
 70
     0
  3
ISO double-dash triple-dot __ __ . . . __ __ . 
 72
    65
 73
    10
 40
39.0
 49
12.0
 74
     0
 49
-3.0
 74
     0
 49
12.0
 74
     0
 49
-3.0
 74
     0
 49
0.0
 74
     0
 49
-3.0
 74
     0
 49
0.0
 74
     0
 49
-3.0
 74
     0
 49
0.0
 74
     0
 49
-3.0
 74
     0
  0
LTYPE
  5
42
330
5
100
AcDbSymbolTableRecord
100
AcDbLinetypeTableRecord
  2
BATTING
 70
     0
  3
Batting SSSSSSSSSSSSSSSSSSSSSSSSSSSSSSSSSSSSSSS
 72
    65
 73
     4
 40
10.16254
 49
0.00254
 74
     0
 49
-2.54
 74
     4
 75
   134
340
33
 46
2.54
 50
0.0
 44
-2.54
 45
0.0
 49
-5.08
 74
     4
 75
   134
340
33
 46
2.54
 50
180.0
 44
2.54
 45
0.0
 49
-2.54
 74
     0
  0
LTYPE
  5
43
330
5
100
AcDbSymbolTableRecord
100
AcDbLinetypeTableRecord
  2
BORDER
 70
     0
  3
Border __ __ . __ __ . __ __ . __ __ . __ __ .
 72
    65
 73
     6
 40
44.45
 49
12.7
 74
     0
 49
-6.349999999999999
 74
     0
 49
12.7
 74
     0
 49
-6.349999999999999
 74
     0
 49
0.0
 74
     0
 49
-6.349999999999999
 74
     0
  0
LTYPE
  5
44
330
5
100
AcDbSymbolTableRecord
100
AcDbLinetypeTableRecord
  2
BORDER2
 70
     0
  3
Border (.5x) __.__.__.__.__.__.__.__.__.__.__.
 72
    65
 73
     6
 40
22.225
 49
6.349999999999999
 74
     0
 49
-3.174999999999999
 74
     0
 49
6.349999999999999
 74
     0
 49
-3.174999999999999
 74
     0
 49
0.0
 74
     0
 49
-3.174999999999999
 74
     0
  0
LTYPE
  5
45
330
5
100
AcDbSymbolTableRecord
100
AcDbLinetypeTableRecord
  2
BORDERX2
 70
     0
  3
Border (2x) ____  ____  .  ____  ____  .  ___
 72
    65
 73
     6
 40
88.9
 49
25.4
 74
     0
 49
-12.7
 74
     0
 49
25.4
 74
     0
 49
-12.7
 74
     0
 49
0.0
 74
     0
 49
-12.7
 74
     0
  0
LTYPE
  5
46
330
5
100
AcDbSymbolTableRecord
100
AcDbLinetypeTableRecord
  2
CENTER
 70
     0
  3
Center ____ _ ____ _ ____ _ ____ _ ____ _ ____
 72
    65
 73
     4
 40
50.8
 49
31.75
 74
     0
 49
-6.349999999999999
 74
     0
 49
6.349999999999999
 74
     0
 49
-6.349999999999999
 74
     0
  0
LTYPE
  5
47
330
5
100
AcDbSymbolTableRecord
100
AcDbLinetypeTableRecord
  2
CENTER2
 70
     0
  3
Center (.5x) ___ _ ___ _ ___ _ ___ _ ___ _ ___
 72
    65
 73
     4
 40
28.575
 49
19.05
 74
     0
 49
-3.174999999999999
 74
     0
 49
3.174999999999999
 74
     0
 49
-3.174999999999999
 74
     0
  0
LTYPE
  5
48
330
5
100
AcDbSymbolTableRecord
100
AcDbLinetypeTableRecord
  2
CENTERX2
 70
     0
  3
Center (2x) ________  __  ________  __  _____
 72
    65
 73
     4
 40
101.6
 49
63.5
 74
     0
 49
-12.7
 74
     0
 49
12.7
 74
     0
 49
-12.7
 74
     0
  0
LTYPE
  5
49
330
5
100
AcDbSymbolTableRecord
100
AcDbLinetypeTableRecord
  2
DASHDOT
 70
     0
  3
Dash dot __ . __ . __ . __ . __ . __ . __ . __
 72
    65
 73
     4
 40
25.4
 49
12.7
 74
     0
 49
-6.349999999999999
 74
     0
 49
0.0
 74
     0
 49
-6.349999999999999
 74
     0
  0
LTYPE
  5
4A
330
5
100
AcDbSymbolTableRecord
100
AcDbLinetypeTableRecord
  2
DASHDOT2
 70
     0
  3
Dash dot (.5x) _._._._._._._._._._._._._._._.
 72
    65
 73
     4
 40
12.7
 49
6.349999999999999
 74
     0
 49
-3.174999999999999
 74
     0
 49
0.0
 74
     0
 49
-3.174999999999999
 74
     0
  0
LTYPE
  5
4B
330
5
100
AcDbSymbolTableRecord
100
AcDbLinetypeTableRecord
  2
DASHDOTX2
 70
     0
  3
Dash dot (2x) ____  .  ____  .  ____  .  ___
 72
    65
 73
     4
 40
50.8
 49
25.4
 74
     0
 49
-12.7
 74
     0
 49
0.0
 74
     0
 49
-12.7
 74
     0
  0
LTYPE
  5
4C
330
5
100
AcDbSymbolTableRecord
100
AcDbLinetypeTableRecord
  2
DASHED
 70
     0
  3
Dashed __ __ __ __ __ __ __ __ __ __ __ __ __ _
 72
    65
 73
     2
 40
19.05
 49
12.7
 74
     0
 49
-6.349999999999999
 74
     0
  0
LTYPE
  5
4D
330
5
100
AcDbSymbolTableRecord
100
AcDbLinetypeTableRecord
  2
DASHED2
 70
     0
  3
Dashed (.5x) _ _ _ _ _ _ _ _ _ _ _ _ _ _ _ _ _
 72
    65
 73
     2
 40
9.524999999999998
 49
6.349999999999999
 74
     0
 49
-3.174999999999999
 74
     0
  0
LTYPE
  5
4E
330
5
100
AcDbSymbolTableRecord
100
AcDbLinetypeTableRecord
  2
DASHEDX2
 70
     0
  3
Dashed (2x) ____  ____  ____  ____  ____  ___
 72
    65
 73
     2
 40
38.1
 49
25.4
 74
     0
 49
-12.7
 74
     0
  0
LTYPE
  5
4F
330
5
100
AcDbSymbolTableRecord
100
AcDbLinetypeTableRecord
  2
DIVIDE
 70
     0
  3
Divide ____ . . ____ . . ____ . . ____ . . ____
 72
    65
 73
     6
 40
31.75
 49
12.7
 74
     0
 49
-6.349999999999999
 74
     0
 49
0.0
 74
     0
 49
-6.349999999999999
 74
     0
 49
0.0
 74
     0
 49
-6.349999999999999
 74
     0
  0
LTYPE
  5
50
330
5
100
AcDbSymbolTableRecord
100
AcDbLinetypeTableRecord
  2
DIVIDE2
 70
     0
  3
Divide (.5x) __..__..__..__..__..__..__..__.._
 72
    65
 73
     6
 40
15.875
 49
6.349999999999999
 74
     0
 49
-3.174999999999999
 74
     0
 49
0.0
 74
     0
 49
-3.174999999999999
 74
     0
 49
0.0
 74
     0
 49
-3.174999999999999
 74
     0
  0
LTYPE
  5
51
330
5
100
AcDbSymbolTableRecord
100
AcDbLinetypeTableRecord
  2
DIVIDEX2
 70
     0
  3
Divide (2x) ________  .  .  ________  .  .  _
 72
    65
 73
     6
 40
63.49999999999999
 49
25.4
 74
     0
 49
-12.7
 74
     0
 49
0.0
 74
     0
 49
-12.7
 74
     0
 49
0.0
 74
     0
 49
-12.7
 74
     0
  0
LTYPE
  5
52
330
5
100
AcDbSymbolTableRecord
100
AcDbLinetypeTableRecord
  2
DOT
 70
     0
  3
Dot . . . . . . . . . . . . . . . . . . . . . .
 72
    65
 73
     2
 40
6.349999999999999
 49
0.0
 74
     0
 49
-6.349999999999999
 74
     0
  0
LTYPE
  5
53
330
5
100
AcDbSymbolTableRecord
100
AcDbLinetypeTableRecord
  2
DOT2
 70
     0
  3
Dot (.5x) .....................................
 72
    65
 73
     2
 40
3.174999999999999
 49
0.0
 74
     0
 49
-3.174999999999999
 74
     0
  0
LTYPE
  5
54
330
5
100
AcDbSymbolTableRecord
100
AcDbLinetypeTableRecord
  2
DOTX2
 70
     0
  3
Dot (2x) .  .  .  .  .  .  .  .  .  .  .  .  . 
 72
    65
 73
     2
 40
12.7
 49
0.0
 74
     0
 49
-12.7
 74
     0
  0
LTYPE
  5
55
330
5
100
AcDbSymbolTableRecord
100
AcDbLinetypeTableRecord
  2
FENCELINE1
 70
     0
  3
Fenceline circle ----0-----0----0-----0----0---
 72
    65
 73
     4
 40
36.83
 49
6.349999999999999
 74
     0
 49
-2.54
 74
     4
 75
   133
340
33
 46
2.54
 50
0.0
 44
-2.54
 45
0.0
 49
-2.54
 74
     0
 49
25.4
 74
     0
  0
LTYPE
  5
56
330
5
100
AcDbSymbolTableRecord
100
AcDbLinetypeTableRecord
  2
FENCELINE2
 70
     0
  3
Fenceline square ----[]-----[]----[]-----[]----
 72
    65
 73
     4
 40
36.83
 49
6.349999999999999
 74
     0
 49
-2.54
 74
     4
 75
   132
340
33
 46
2.54
 50
0.0
 44
-2.54
 45
0.0
 49
-2.54
 74
     0
 49
25.4
 74
     0
  0
LTYPE
  5
57
330
5
100
AcDbSymbolTableRecord
100
AcDbLinetypeTableRecord
  2
GAS_LINE
 70
     0
  3
Gas line ----GAS----GAS----GAS----GAS----GAS---
 72
    65
 73
     3
 40
24.13
 49
12.7
 74
     0
 49
-5.08
 74
     2
 75
     0
340
11
 46
2.54
 50
0.0
 44
-2.54
 45
-1.27
  9
GAS
 49
-6.349999999999999
 74
     0
  0
LTYPE
  5
58
330
5
100
AcDbSymbolTableRecord
100
AcDbLinetypeTableRecord
  2
HIDDEN
 70
     0
  3
Hidden __ __ __ __ __ __ __ __ __ __ __ __ __ _
 72
    65
 73
     2
 40
9.524999999999998
 49
6.349999999999999
 74
     0
 49
-3.174999999999999
 74
     0
  0
LTYPE
  5
59
330
5
100
AcDbSymbolTableRecord
100
AcDbLinetypeTableRecord
  2
HIDDEN2
 70
     0
  3
Hidden (.5x) _ _ _ _ _ _ _ _ _ _ _ _ _ _ _ _ _
 72
    65
 73
     2
 40
4.762499999999999
 49
3.174999999999999
 74
     0
 49
-1.587499999999999
 74
     0
  0
LTYPE
  5
5A
330
5
100
AcDbSymbolTableRecord
100
AcDbLinetypeTableRecord
  2
HIDDENX2
 70
     0
  3
Hidden (2x) ____ ____ ____ ____ ____ ____ ____
 72
    65
 73
     2
 40
19.05
 49
12.7
 74
     0
 49
-6.349999999999999
 74
     0
  0
LTYPE
  5
5B
330
5
100
AcDbSymbolTableRecord
100
AcDbLinetypeTableRecord
  2
HOT_WATER_SUPPLY
 70
     0
  3
Hot water supply ---- HW ---- HW ---- HW ----
 72
    65
 73
     3
 40
22.86
 49
12.7
 74
     0
 49
-5.08
 74
     2
 75
     0
340
11
 46
2.54
 50
0.0
 44
-2.54
 45
-1.27
  9
HW
 49
-5.08
 74
     0
  0
LTYPE
  5
5C
330
5
100
AcDbSymbolTableRecord
100
AcDbLinetypeTableRecord
  2
PHANTOM
 70
     0
  3
Phantom ______  __  __  ______  __  __  ______
 72
    65
 73
     6
 40
63.5
 49
31.75
 74
     0
 49
-6.349999999999999
 74
     0
 49
6.349999999999999
 74
     0
 49
-6.349999999999999
 74
     0
 49
6.349999999999999
 74
     0
 49
-6.349999999999999
 74
     0
  0
LTYPE
  5
5D
330
5
100
AcDbSymbolTableRecord
100
AcDbLinetypeTableRecord
  2
PHANTOM2
 70
     0
  3
Phantom (.5x) ___ _ _ ___ _ _ ___ _ _ ___ _ _
 72
    65
 73
     6
 40
31.75
 49
15.875
 74
     0
 49
-3.174999999999999
 74
     0
 49
3.174999999999999
 74
     0
 49
-3.174999999999999
 74
     0
 49
3.174999999999999
 74
     0
 49
-3.174999999999999
 74
     0
  0
LTYPE
  5
5E
330
5
100
AcDbSymbolTableRecord
100
AcDbLinetypeTableRecord
  2
PHANTOMX2
 70
     0
  3
Phantom (2x) ____________    ____    ____   _
 72
    65
 73
     6
 40
127.0
 49
63.5
 74
     0
 49
-12.7
 74
     0
 49
12.7
 74
     0
 49
-12.7
 74
     0
 49
12.7
 74
     0
 49
-12.7
 74
     0
  0
LTYPE
  5
5F
330
5
100
AcDbSymbolTableRecord
100
AcDbLinetypeTableRecord
  2
TRACKS
 70
     0
  3
Tracks -|-|-|-|-|-|-|-|-|-|-|-|-|-|-|-|-|-|-|-|
 72
    65
 73
     2
 40
7.62
 49
3.81
 74
     4
 75
   130
340
33
 46
6.349999999999999
 50
0.0
 44
0.0
 45
0.0
 49
3.81
 74
     0
  0
LTYPE
  5
60
330
5
100
AcDbSymbolTableRecord
100
AcDbLinetypeTableRecord
  2
ZIGZAG
 70
     0
  3
Zig zag /\/\/\/\/\/\/\/\/\/\/\/\/\/\/\/\/\/\/\/
 72
    65
 73
     4
 40
20.32254
 49
0.00254
 74
     0
 49
-5.08
 74
     4
 75
   131
340
33
 46
5.08
 50
0.0
 44
-5.08
 45
0.0
 49
-10.16
 74
     4
 75
   131
340
33
 46
5.08
 50
180.0
 44
5.08
 45
0.0
 49
-5.08
 74
     0
  0
ENDTAB
  0
TABLE
  2
LAYER
  5
2
102
{ACAD_XDICTIONARY
360
11C1
102
}
330
0
100
AcDbSymbolTable
 70
     9
  0
LAYER
  5
10
330
2
100
AcDbSymbolTableRecord
100
AcDbLayerTableRecord
  2
0
 70
     0
 62
     7
  6
Continuous
370
    -3
390
F
  0
LAYER
  5
C3
330
2
100
AcDbSymbolTableRecord
100
AcDbLayerTableRecord
  2
Defpoints
 70
     0
 62
     7
  6
Continuous
290
     0
370
    -3
390
F
  0
LAYER
  5
256
330
2
100
AcDbSymbolTableRecord
100
AcDbLayerTableRecord
  2
センター
 70
     0
 62
     7
  6
CENTER2
370
    18
390
F
  0
LAYER
  5
268
330
2
100
AcDbSymbolTableRecord
100
AcDbLayerTableRecord
  2
実形
 70
     0
 62
     7
  6
Continuous
370
    -3
390
F
  0
LAYER
  5
269
330
2
100
AcDbSymbolTableRecord
100
AcDbLayerTableRecord
  2
補助
 70
     0
 62
     7
  6
Continuous
370
    -3
390
F
  0
LAYER
  5
26A
330
2
100
AcDbSymbolTableRecord
100
AcDbLayerTableRecord
  2
寸法
 70
     0
 62
     7
  6
Continuous
370
    18
390
F
  0
LAYER
  5
26B
330
2
100
AcDbSymbolTableRecord
100
AcDbLayerTableRecord
  2
ハッチング
 70
     0
 62
     7
  6
Continuous
370
    18
390
F
  0
LAYER
  5
26D
330
2
100
AcDbSymbolTableRecord
100
AcDbLayerTableRecord
  2
文字
 70
     0
 62
     7
  6
Continuous
370
    -3
390
F
  0
LAYER
  5
FE8
330
2
100
AcDbSymbolTableRecord
100
AcDbLayerTableRecord
  2
Cen
 70
     0
 62
     7
  6
CENTER2
370
    15
390
F
  0
ENDTAB
  0
TABLE
  2
STYLE
  5
3
330
0
100
AcDbSymbolTable
 70
     3
  0
STYLE
  5
11
330
3
100
AcDbSymbolTableRecord
100
AcDbTextStyleTableRecord
  2
Standard
 70
     0
 40
0.0
 41
1.0
 50
0.0
 71
     0
 42
25.0
  3
txt.shx
  4
bigfont.shx
  0
STYLE
  5
33
330
3
100
AcDbSymbolTableRecord
100
AcDbTextStyleTableRecord
  2

 70
     1
 40
0.0
 41
1.0
 50
0.0
 71
     0
 42
2.5
  3
ltypeshp.shx
  4

  0
STYLE
  5
11D5
330
3
100
AcDbSymbolTableRecord
100
AcDbTextStyleTableRecord
  2
明朝
 70
     0
 40
0.0
 41
1.0
 50
0.0
 71
     0
 42
25.0
  3
MS Mincho.ttf
  4

1001
ACAD
1000
MS Mincho
1071
    32785
  0
ENDTAB
  0
TABLE
  2
VIEW
  5
6
330
0
100
AcDbSymbolTable
 70
     0
  0
ENDTAB
  0
TABLE
  2
UCS
  5
7
330
0
100
AcDbSymbolTable
 70
     0
  0
ENDTAB
  0
TABLE
  2
APPID
  5
9
330
0
100
AcDbSymbolTable
 70
     2
  0
APPID
  5
12
330
9
100
AcDbSymbolTableRecord
100
AcDbRegAppTableRecord
  2
ACAD
 70
     0
  0
APPID
  5
11D6
330
9
100
AcDbSymbolTableRecord
100
AcDbRegAppTableRecord
  2
ACAD_PSEXT
 70
     0
  0
ENDTAB
  0
TABLE
  2
DIMSTYLE
  5
A
330
0
100
AcDbSymbolTable
 70
     1
100
AcDbDimStyleTable
 71
     1
340
27
  0
DIMSTYLE
105
27
102
{ACAD_REACTORS
330
368
330
44B
330
458
330
4A3
330
569
330
57F
330
35B
330
3CE
330
43D
330
3E9
330
3DC
330
3F6
330
4F8
330
505
330
10B1
330
10B2
102
}
330
A
100
AcDbSymbolTableRecord
100
AcDbDimStyleTableRecord
  2
ISO-25
 70
     0
 41
35.0
 42
65.0
 43
3.75
 44
0.0
 73
     0
 74
     0
 77
     1
 78
     8
140
25.0
141
2.5
143
0.03937007874016
147
6.25
171
     3
172
     1
271
     2
272
     2
274
     3
283
     0
284
     8
340
11
341
DA
342
D0
371
    15
372
    15
  0
ENDTAB
  0
TABLE
  2
BLOCK_RECORD
  5
1
330
0
100
AcDbSymbolTable
 70
    20
  0
BLOCK_RECORD
  5
1F
102
{ACAD_XDICTIONARY
360
11F5
102
}
330
1
100
AcDbSymbolTableRecord
100
AcDbBlockTableRecord
  2
*Model_Space
340
22
  0
BLOCK_RECORD
  5
1B
330
1
100
AcDbSymbolTableRecord
100
AcDbBlockTableRecord
  2
*Paper_Space
340
1E
  0
BLOCK_RECORD
  5
23
330
1
100
AcDbSymbolTableRecord
100
AcDbBlockTableRecord
  2
*Paper_Space0
340
26
  0
BLOCK_RECORD
  5
D0
330
1
100
AcDbSymbolTableRecord
100
AcDbBlockTableRecord
  2
_DotSmall
340
0
102
{BLKREFS
331
10E4
331
10E5
331
10ED
331
10EE
331
10F5
331
10F6
331
1107
331
1108
331
1119
331
111A
331
1122
331
1123
331
112A
331
112B
331
1134
331
1135
331
113C
331
113D
331
1146
331
1147
331
114E
331
114F
331
1157
331
1158
331
115F
331
1160
331
1168
331
1169
331
1194
331
1195
331
119D
331
119E
102
}
  0
BLOCK_RECORD
  5
D4
330
1
100
AcDbSymbolTableRecord
100
AcDbBlockTableRecord
  2
_Origin2
340
0
  0
BLOCK_RECORD
  5
DA
330
1
100
AcDbSymbolTableRecord
100
AcDbBlockTableRecord
  2
_Open30
340
0
  0
BLOCK_RECORD
  5
35C
330
1
100
AcDbSymbolTableRecord
100
AcDbBlockTableRecord
  2
*D4
340
0
  0
BLOCK_RECORD
  5
369
330
1
100
AcDbSymbolTableRecord
100
AcDbBlockTableRecord
  2
*D5
340
0
  0
BLOCK_RECORD
  5
3CF
330
1
100
AcDbSymbolTableRecord
100
AcDbBlockTableRecord
  2
*D6
340
0
  0
BLOCK_RECORD
  5
3DD
330
1
100
AcDbSymbolTableRecord
100
AcDbBlockTableRecord
  2
*D7
340
0
  0
BLOCK_RECORD
  5
3EA
330
1
100
AcDbSymbolTableRecord
100
AcDbBlockTableRecord
  2
*D8
340
0
  0
BLOCK_RECORD
  5
3F7
330
1
100
AcDbSymbolTableRecord
100
AcDbBlockTableRecord
  2
*D9
340
0
  0
BLOCK_RECORD
  5
43E
330
1
100
AcDbSymbolTableRecord
100
AcDbBlockTableRecord
  2
*D10
340
0
  0
BLOCK_RECORD
  5
44C
330
1
100
AcDbSymbolTableRecord
100
AcDbBlockTableRecord
  2
*D11
340
0
  0
BLOCK_RECORD
  5
459
330
1
100
AcDbSymbolTableRecord
100
AcDbBlockTableRecord
  2
*D12
340
0
  0
BLOCK_RECORD
  5
4A4
330
1
100
AcDbSymbolTableRecord
100
AcDbBlockTableRecord
  2
*D13
340
0
  0
BLOCK_RECORD
  5
4F9
330
1
100
AcDbSymbolTableRecord
100
AcDbBlockTableRecord
  2
*D14
340
0
  0
BLOCK_RECORD
  5
506
330
1
100
AcDbSymbolTableRecord
100
AcDbBlockTableRecord
  2
*D15
340
0
  0
BLOCK_RECORD
  5
56A
330
1
100
AcDbSymbolTableRecord
100
AcDbBlockTableRecord
  2
*D16
340
0
  0
BLOCK_RECORD
  5
580
330
1
100
AcDbSymbolTableRecord
100
AcDbBlockTableRecord
  2
*D17
340
0
  0
BLOCK_RECORD
  5
10B9
330
1
100
AcDbSymbolTableRecord
100
AcDbBlockTableRecord
  2
*D18
340
0
  0
BLOCK_RECORD
  5
10C4
330
1
100
AcDbSymbolTableRecord
100
AcDbBlockTableRecord
  2
*D19
340
0
  0
ENDTAB
  0
ENDSEC
  0
SECTION
  2
BLOCKS
  0
BLOCK
  5
20
330
1F
100
AcDbEntity
  8
0
100
AcDbBlockBegin
  2
*Model_Space
 70
     0
 10
0.0
 20
0.0
 30
0.0
  3
*Model_Space
  1

  0
ENDBLK
  5
21
330
1F
100
AcDbEntity
  8
0
100
AcDbBlockEnd
  0
BLOCK
  5
1C
330
1B
100
AcDbEntity
 67
     1
  8
0
100
AcDbBlockBegin
  2
*Paper_Space
 70
     0
 10
0.0
 20
0.0
 30
0.0
  3
*Paper_Space
  1

  0
ENDBLK
  5
1D
330
1B
100
AcDbEntity
 67
     1
  8
0
100
AcDbBlockEnd
  0
BLOCK
  5
24
330
23
100
AcDbEntity
  8
0
100
AcDbBlockBegin
  2
*Paper_Space0
 70
     0
 10
0.0
 20
0.0
 30
0.0
  3
*Paper_Space0
  1

  0
ENDBLK
  5
25
330
23
100
AcDbEntity
  8
0
100
AcDbBlockEnd
  0
BLOCK
  5
D2
330
D0
100
AcDbEntity
  8
0
100
AcDbBlockBegin
  2
_DotSmall
 70
     0
 10
0.0
 20
0.0
 30
0.0
  3
_DotSmall
  1

  0
LWPOLYLINE
  5
D1
330
D0
100
AcDbEntity
  8
0
 62
     0
100
AcDbPolyline
 90
        2
 70
     1
 43
0.5
 10
-0.0625
 20
0.0
 42
1.0
 10
0.0625
 20
0.0
 42
1.0
  0
ENDBLK
  5
D3
330
D0
100
AcDbEntity
  8
0
100
AcDbBlockEnd
  0
BLOCK
  5
D8
330
D4
100
AcDbEntity
  8
0
100
AcDbBlockBegin
  2
_Origin2
 70
     0
 10
0.0
 20
0.0
 30
0.0
  3
_Origin2
  1

  0
CIRCLE
  5
D5
330
D4
100
AcDbEntity
  8
0
 62
     0
370
    -2
100
AcDbCircle
 10
0.0
 20
0.0
 30
0.0
 40
0.5
  0
CIRCLE
  5
D6
330
D4
100
AcDbEntity
  8
0
 62
     0
370
    -2
100
AcDbCircle
 10
0.0
 20
0.0
 30
0.0
 40
0.25
  0
LINE
  5
D7
330
D4
100
AcDbEntity
  8
0
 62
     0
370
    -2
100
AcDbLine
 10
-0.5
 20
0.0
 30
0.0
 11
-1.0
 21
0.0
 31
0.0
  0
ENDBLK
  5
D9
330
D4
100
AcDbEntity
  8
0
100
AcDbBlockEnd
  0
BLOCK
  5
DE
330
DA
100
AcDbEntity
  8
0
100
AcDbBlockBegin
  2
_Open30
 70
     0
 10
0.0
 20
0.0
 30
0.0
  3
_Open30
  1

  0
LINE
  5
DB
330
DA
100
AcDbEntity
  8
0
 62
     0
370
    -2
100
AcDbLine
 10
-1.0
 20
0.26794919
 30
0.0
 11
0.0
 21
0.0
 31
0.0
  0
LINE
  5
DC
330
DA
100
AcDbEntity
  8
0
 62
     0
370
    -2
100
AcDbLine
 10
0.0
 20
0.0
 30
0.0
 11
-1.0
 21
-0.26794919
 31
0.0
  0
LINE
  5
DD
330
DA
100
AcDbEntity
  8
0
 62
     0
370
    -2
100
AcDbLine
 10
0.0
 20
0.0
 30
0.0
 11
-1.0
 21
0.0
 31
0.0
  0
ENDBLK
  5
DF
330
DA
100
AcDbEntity
  8
0
100
AcDbBlockEnd
  0
BLOCK
  5
366
330
35C
100
AcDbEntity
  8
0
100
AcDbBlockBegin
  2
*D4
 70
     1
 10
0.0
 20
0.0
 30
0.0
  3
*D4
  1

  0
LINE
  5
1165
330
35C
100
AcDbEntity
  8
寸法
 62
     0
370
    15
100
AcDbLine
 10
866.3550829205505
 20
1643.394173993686
 30
0.0
 11
866.3550829205505
 21
1801.697292157095
 31
0.0
  0
LINE
  5
1166
330
35C
100
AcDbEntity
  8
寸法
 62
     0
370
    15
100
AcDbLine
 10
716.3550829205505
 20
1552.894173993686
 30
0.0
 11
716.3550829205505
 21
1801.697292157095
 31
0.0
  0
LINE
  5
1167
330
35C
100
AcDbEntity
  8
寸法
 62
     0
370
    18
100
AcDbLine
 10
866.3550829205505
 20
1801.697292157095
 30
0.0
 11
716.3550829205505
 21
1801.697292157095
 31
0.0
  0
INSERT
  5
1168
330
35C
100
AcDbEntity
  8
寸法
 62
     0
370
    18
100
AcDbBlockReference
  2
_DotSmall
 10
866.3550829205505
 20
1801.697292157095
 30
0.0
 41
25.0
 42
25.0
 43
25.0
  0
INSERT
  5
1169
330
35C
100
AcDbEntity
  8
寸法
 62
     0
370
    18
100
AcDbBlockReference
  2
_DotSmall
 10
716.3550829205505
 20
1801.697292157095
 30
0.0
 41
25.0
 42
25.0
 43
25.0
 50
180.0
  0
MTEXT
  5
116A
330
35C
100
AcDbEntity
  8
寸法
 62
     0
100
AcDbMText
 10
791.3550829205505
 20
1820.447292157094
 30
0.0
 40
25.0
 41
0.0
 71
     5
 72
     1
  1
150
 73
     1
 44
1.0
1001
ACAD
1000
MTEXTBEGIN
1070
    73
1070
     1
1070
    44
1040
1.0
1070
    74
1070
     0
1000
MTEXTEND
  0
POINT
  5
116B
330
35C
100
AcDbEntity
  8
Defpoints
 62
     0
100
AcDbPoint
 10
866.3550829205505
 20
1578.394173993686
 30
0.0
  0
POINT
  5
116C
330
35C
100
AcDbEntity
  8
Defpoints
 62
     0
100
AcDbPoint
 10
716.3550829205505
 20
1487.894173993686
 30
0.0
  0
POINT
  5
116D
330
35C
100
AcDbEntity
  8
Defpoints
 62
     0
100
AcDbPoint
 10
716.3550829205505
 20
1801.697292157095
 30
0.0
  0
ENDBLK
  5
367
330
35C
100
AcDbEntity
  8
0
100
AcDbBlockEnd
  0
BLOCK
  5
373
330
369
100
AcDbEntity
  8
0
100
AcDbBlockBegin
  2
*D5
 70
     1
 10
0.0
 20
0.0
 30
0.0
  3
*D5
  1

  0
LINE
  5
115C
330
369
100
AcDbEntity
  8
寸法
 62
     0
370
    15
100
AcDbLine
 10
1021.85508292055
 20
1487.894173993686
 30
0.0
 11
1041.35508292055
 21
1487.894173993686
 31
0.0
  0
LINE
  5
115D
330
369
100
AcDbEntity
  8
寸法
 62
     0
370
    15
100
AcDbLine
 10
1036.85142950885
 20
1707.894173993686
 30
0.0
 11
1041.35508292055
 21
1707.894173993686
 31
0.0
  0
LINE
  5
115E
330
369
100
AcDbEntity
  8
寸法
 62
     0
370
    18
100
AcDbLine
 10
1041.35508292055
 20
1487.894173993686
 30
0.0
 11
1041.35508292055
 21
1707.894173993686
 31
0.0
  0
INSERT
  5
115F
330
369
100
AcDbEntity
  8
寸法
 62
     0
370
    18
100
AcDbBlockReference
  2
_DotSmall
 10
1041.35508292055
 20
1487.894173993686
 30
0.0
 41
25.0
 42
25.0
 43
25.0
 50
270.0
  0
INSERT
  5
1160
330
369
100
AcDbEntity
  8
寸法
 62
     0
370
    18
100
AcDbBlockReference
  2
_DotSmall
 10
1041.35508292055
 20
1707.894173993686
 30
0.0
 41
25.0
 42
25.0
 43
25.0
 50
90.0
  0
MTEXT
  5
1161
330
369
100
AcDbEntity
  8
寸法
 62
     0
100
AcDbMText
 10
1022.60508292055
 20
1597.894173993686
 30
0.0
 40
25.0
 41
0.0
 71
     5
 72
     1
  1
220
 11
0.0000000000000001
 21
1.0
 31
0.0
 73
     1
 44
1.0
1001
ACAD
1000
MTEXTBEGIN
1070
    73
1070
     1
1070
    44
1040
1.0
1070
    74
1070
     0
1000
MTEXTEND
  0
POINT
  5
1162
330
369
100
AcDbEntity
  8
Defpoints
 62
     0
100
AcDbPoint
 10
956.8550829205506
 20
1487.894173993686
 30
0.0
  0
POINT
  5
1163
330
369
100
AcDbEntity
  8
Defpoints
 62
     0
100
AcDbPoint
 10
1101.85142950885
 20
1707.894173993686
 30
0.0
  0
POINT
  5
1164
330
369
100
AcDbEntity
  8
Defpoints
 62
     0
100
AcDbPoint
 10
1041.35508292055
 20
1707.894173993686
 30
0.0
  0
ENDBLK
  5
374
330
369
100
AcDbEntity
  8
0
100
AcDbBlockEnd
  0
BLOCK
  5
3DA
330
3CF
100
AcDbEntity
  8
0
100
AcDbBlockBegin
  2
*D6
 70
     1
 10
0.0
 20
0.0
 30
0.0
  3
*D6
  1

  0
LINE
  5
1154
330
3CF
100
AcDbEntity
  8
寸法
 62
     0
370
    15
100
AcDbLine
 10
636.3550829205506
 20
1722.894173993686
 30
0.0
 11
558.1797681966772
 21
1722.894173993686
 31
0.0
  0
LINE
  5
1155
330
3CF
100
AcDbEntity
  8
寸法
 62
     0
370
    15
100
AcDbLine
 10
636.3550829205506
 20
1707.894173993686
 30
0.0
 11
558.1797681966772
 21
1707.894173993686
 31
0.0
  0
LINE
  5
1156
330
3CF
100
AcDbEntity
  8
寸法
 62
     0
370
    18
100
AcDbLine
 10
558.1797681966772
 20
1722.894173993686
 30
0.0
 11
558.1797681966772
 21
1707.894173993686
 31
0.0
  0
INSERT
  5
1157
330
3CF
100
AcDbEntity
  8
寸法
 62
     0
370
    18
100
AcDbBlockReference
  2
_DotSmall
 10
558.1797681966772
 20
1722.894173993686
 30
0.0
 41
25.0
 42
25.0
 43
25.0
 50
90.0
  0
INSERT
  5
1158
330
3CF
100
AcDbEntity
  8
寸法
 62
     0
370
    18
100
AcDbBlockReference
  2
_DotSmall
 10
558.1797681966772
 20
1707.894173993686
 30
0.0
 41
25.0
 42
25.0
 43
25.0
 50
270.0
  0
POINT
  5
1159
330
3CF
100
AcDbEntity
  8
Defpoints
 62
     0
100
AcDbPoint
 10
701.3550829205505
 20
1722.894173993686
 30
0.0
  0
POINT
  5
115A
330
3CF
100
AcDbEntity
  8
Defpoints
 62
     0
100
AcDbPoint
 10
701.3550829205505
 20
1707.894173993686
 30
0.0
  0
POINT
  5
115B
330
3CF
100
AcDbEntity
  8
Defpoints
 62
     0
100
AcDbPoint
 10
558.1797681966772
 20
1707.894173993686
 30
0.0
  0
ENDBLK
  5
3DB
330
3CF
100
AcDbEntity
  8
0
100
AcDbBlockEnd
  0
BLOCK
  5
3E7
330
3DD
100
AcDbEntity
  8
0
100
AcDbBlockBegin
  2
*D7
 70
     1
 10
0.0
 20
0.0
 30
0.0
  3
*D7
  1

  0
LINE
  5
114B
330
3DD
100
AcDbEntity
  8
寸法
 62
     0
370
    15
100
AcDbLine
 10
636.3550829205506
 20
1707.894173993686
 30
0.0
 11
558.1797681966774
 21
1707.894173993686
 31
0.0
  0
LINE
  5
114C
330
3DD
100
AcDbEntity
  8
寸法
 62
     0
370
    15
100
AcDbLine
 10
636.3550829205506
 20
1267.894173993686
 30
0.0
 11
558.1797681966772
 21
1267.894173993686
 31
0.0
  0
LINE
  5
114D
330
3DD
100
AcDbEntity
  8
寸法
 62
     0
370
    18
100
AcDbLine
 10
558.1797681966774
 20
1707.894173993686
 30
0.0
 11
558.1797681966772
 21
1267.894173993686
 31
0.0
  0
INSERT
  5
114E
330
3DD
100
AcDbEntity
  8
寸法
 62
     0
370
    18
100
AcDbBlockReference
  2
_DotSmall
 10
558.1797681966774
 20
1707.894173993686
 30
0.0
 41
25.0
 42
25.0
 43
25.0
 50
90.0
  0
INSERT
  5
114F
330
3DD
100
AcDbEntity
  8
寸法
 62
     0
370
    18
100
AcDbBlockReference
  2
_DotSmall
 10
558.1797681966772
 20
1267.894173993686
 30
0.0
 41
25.0
 42
25.0
 43
25.0
 50
270.0
  0
MTEXT
  5
1150
330
3DD
100
AcDbEntity
  8
寸法
 62
     0
100
AcDbMText
 10
539.4297681966771
 20
1487.894173993686
 30
0.0
 40
25.0
 41
0.0
 71
     5
 72
     1
  1
440
 11
0.0000000000000001
 21
1.0
 31
0.0
 73
     1
 44
1.0
1001
ACAD
1000
MTEXTBEGIN
1070
    73
1070
     1
1070
    44
1040
1.0
1070
    74
1070
     0
1000
MTEXTEND
  0
POINT
  5
1151
330
3DD
100
AcDbEntity
  8
Defpoints
 62
     0
100
AcDbPoint
 10
701.3550829205505
 20
1707.894173993686
 30
0.0
  0
POINT
  5
1152
330
3DD
100
AcDbEntity
  8
Defpoints
 62
     0
100
AcDbPoint
 10
701.3550829205505
 20
1267.894173993686
 30
0.0
  0
POINT
  5
1153
330
3DD
100
AcDbEntity
  8
Defpoints
 62
     0
100
AcDbPoint
 10
558.1797681966772
 20
1267.894173993686
 30
0.0
  0
ENDBLK
  5
3E8
330
3DD
100
AcDbEntity
  8
0
100
AcDbBlockEnd
  0
BLOCK
  5
3F4
330
3EA
100
AcDbEntity
  8
0
100
AcDbBlockBegin
  2
*D8
 70
     1
 10
0.0
 20
0.0
 30
0.0
  3
*D8
  1

  0
LINE
  5
1142
330
3EA
100
AcDbEntity
  8
寸法
 62
     0
370
    15
100
AcDbLine
 10
636.3550829205506
 20
1267.894173993686
 30
0.0
 11
558.1797681966772
 21
1267.894173993686
 31
0.0
  0
LINE
  5
1143
330
3EA
100
AcDbEntity
  8
寸法
 62
     0
370
    15
100
AcDbLine
 10
636.3550829205506
 20
1252.894173993686
 30
0.0
 11
558.1797681966772
 21
1252.894173993686
 31
0.0
  0
LINE
  5
1144
330
3EA
100
AcDbEntity
  8
寸法
 62
     0
370
    18
100
AcDbLine
 10
558.1797681966772
 20
1267.894173993686
 30
0.0
 11
558.1797681966772
 21
1252.894173993686
 31
0.0
  0
MTEXT
  5
1145
330
3EA
100
AcDbEntity
  8
寸法
 62
     0
370
    18
100
AcDbMText
 10
543.8636624920918
 20
1210.20993328546
 30
0.0
 40
25.0
 41
0.0
 71
     5
 72
     1
  1
15
 11
0.0000000000000001
 21
1.0
 31
0.0
 73
     1
 44
1.0
1001
ACAD
1000
MTEXTBEGIN
1070
    73
1070
     1
1070
    44
1040
1.0
1070
    74
1070
     0
1000
MTEXTEND
  0
INSERT
  5
1146
330
3EA
100
AcDbEntity
  8
寸法
 62
     0
370
    18
100
AcDbBlockReference
  2
_DotSmall
 10
558.1797681966772
 20
1267.894173993686
 30
0.0
 41
25.0
 42
25.0
 43
25.0
 50
90.0
  0
INSERT
  5
1147
330
3EA
100
AcDbEntity
  8
寸法
 62
     0
370
    18
100
AcDbBlockReference
  2
_DotSmall
 10
558.1797681966772
 20
1252.894173993686
 30
0.0
 41
25.0
 42
25.0
 43
25.0
 50
270.0
  0
POINT
  5
1148
330
3EA
100
AcDbEntity
  8
Defpoints
 62
     0
100
AcDbPoint
 10
701.3550829205505
 20
1267.894173993686
 30
0.0
  0
POINT
  5
1149
330
3EA
100
AcDbEntity
  8
Defpoints
 62
     0
100
AcDbPoint
 10
701.3550829205505
 20
1252.894173993686
 30
0.0
  0
POINT
  5
114A
330
3EA
100
AcDbEntity
  8
Defpoints
 62
     0
100
AcDbPoint
 10
558.1797681966772
 20
1252.894173993686
 30
0.0
  0
ENDBLK
  5
3F5
330
3EA
100
AcDbEntity
  8
0
100
AcDbBlockEnd
  0
BLOCK
  5
401
330
3F7
100
AcDbEntity
  8
0
100
AcDbBlockBegin
  2
*D9
 70
     1
 10
0.0
 20
0.0
 30
0.0
  3
*D9
  1

  0
LINE
  5
1139
330
3F7
100
AcDbEntity
  8
寸法
 62
     0
370
    15
100
AcDbLine
 10
636.3550829205506
 20
1722.894173993686
 30
0.0
 11
489.3398698719931
 21
1722.894173993686
 31
0.0
  0
LINE
  5
113A
330
3F7
100
AcDbEntity
  8
寸法
 62
     0
370
    15
100
AcDbLine
 10
636.3550829205506
 20
1252.894173993686
 30
0.0
 11
489.3398698719929
 21
1252.894173993686
 31
0.0
  0
LINE
  5
113B
330
3F7
100
AcDbEntity
  8
寸法
 62
     0
370
    18
100
AcDbLine
 10
489.3398698719931
 20
1722.894173993686
 30
0.0
 11
489.3398698719929
 21
1252.894173993686
 31
0.0
  0
INSERT
  5
113C
330
3F7
100
AcDbEntity
  8
寸法
 62
     0
370
    18
100
AcDbBlockReference
  2
_DotSmall
 10
489.3398698719931
 20
1722.894173993686
 30
0.0
 41
25.0
 42
25.0
 43
25.0
 50
90.0
  0
INSERT
  5
113D
330
3F7
100
AcDbEntity
  8
寸法
 62
     0
370
    18
100
AcDbBlockReference
  2
_DotSmall
 10
489.3398698719929
 20
1252.894173993686
 30
0.0
 41
25.0
 42
25.0
 43
25.0
 50
270.0
  0
MTEXT
  5
113E
330
3F7
100
AcDbEntity
  8
寸法
 62
     0
100
AcDbMText
 10
470.5898698719927
 20
1487.894173993686
 30
0.0
 40
25.0
 41
0.0
 71
     5
 72
     1
  1
470
 11
0.0000000000000001
 21
1.0
 31
0.0
 73
     1
 44
1.0
1001
ACAD
1000
MTEXTBEGIN
1070
    73
1070
     1
1070
    44
1040
1.0
1070
    74
1070
     0
1000
MTEXTEND
  0
POINT
  5
113F
330
3F7
100
AcDbEntity
  8
Defpoints
 62
     0
100
AcDbPoint
 10
701.3550829205505
 20
1722.894173993686
 30
0.0
  0
POINT
  5
1140
330
3F7
100
AcDbEntity
  8
Defpoints
 62
     0
100
AcDbPoint
 10
701.3550829205505
 20
1252.894173993686
 30
0.0
  0
POINT
  5
1141
330
3F7
100
AcDbEntity
  8
Defpoints
 62
     0
100
AcDbPoint
 10
489.3398698719929
 20
1252.894173993686
 30
0.0
  0
ENDBLK
  5
402
330
3F7
100
AcDbEntity
  8
0
100
AcDbBlockEnd
  0
BLOCK
  5
449
330
43E
100
AcDbEntity
  8
0
100
AcDbBlockBegin
  2
*D10
 70
     1
 10
0.0
 20
0.0
 30
0.0
  3
*D10
  1

  0
LINE
  5
1130
330
43E
100
AcDbEntity
  8
寸法
 62
     0
370
    15
100
AcDbLine
 10
701.3550829205505
 20
1187.894173993686
 30
0.0
 11
701.3550829205505
 21
1104.962056223632
 31
0.0
  0
LINE
  5
1131
330
43E
100
AcDbEntity
  8
寸法
 62
     0
370
    15
100
AcDbLine
 10
716.3550829205505
 20
1187.894173993686
 30
0.0
 11
716.3550829205505
 21
1104.962056223632
 31
0.0
  0
LINE
  5
1132
330
43E
100
AcDbEntity
  8
寸法
 62
     0
370
    18
100
AcDbLine
 10
701.3550829205505
 20
1104.962056223632
 30
0.0
 11
716.3550829205505
 21
1104.962056223632
 31
0.0
  0
LINE
  5
1133
330
43E
100
AcDbEntity
  8
寸法
 62
     0
370
    18
100
AcDbLine
 10
716.3550829205505
 20
1104.962056223632
 30
0.0
 11
782.1050829205505
 21
1104.962056223632
 31
0.0
  0
INSERT
  5
1134
330
43E
100
AcDbEntity
  8
寸法
 62
     0
370
    18
100
AcDbBlockReference
  2
_DotSmall
 10
701.3550829205505
 20
1104.962056223632
 30
0.0
 41
25.0
 42
25.0
 43
25.0
 50
180.0
  0
INSERT
  5
1135
330
43E
100
AcDbEntity
  8
寸法
 62
     0
370
    18
100
AcDbBlockReference
  2
_DotSmall
 10
716.3550829205505
 20
1104.962056223632
 30
0.0
 41
25.0
 42
25.0
 43
25.0
  0
POINT
  5
1136
330
43E
100
AcDbEntity
  8
Defpoints
 62
     0
100
AcDbPoint
 10
701.3550829205505
 20
1252.894173993686
 30
0.0
  0
POINT
  5
1137
330
43E
100
AcDbEntity
  8
Defpoints
 62
     0
100
AcDbPoint
 10
716.3550829205505
 20
1252.894173993686
 30
0.0
  0
POINT
  5
1138
330
43E
100
AcDbEntity
  8
Defpoints
 62
     0
100
AcDbPoint
 10
716.3550829205505
 20
1104.962056223632
 30
0.0
  0
ENDBLK
  5
44A
330
43E
100
AcDbEntity
  8
0
100
AcDbBlockEnd
  0
BLOCK
  5
456
330
44C
100
AcDbEntity
  8
0
100
AcDbBlockBegin
  2
*D11
 70
     1
 10
0.0
 20
0.0
 30
0.0
  3
*D11
  1

  0
LINE
  5
1127
330
44C
100
AcDbEntity
  8
寸法
 62
     0
370
    15
100
AcDbLine
 10
716.3550829205505
 20
1187.894173993686
 30
0.0
 11
716.3550829205505
 21
1104.962056223632
 31
0.0
  0
LINE
  5
1128
330
44C
100
AcDbEntity
  8
寸法
 62
     0
370
    15
100
AcDbLine
 10
1366.35508292055
 20
1187.894173993686
 30
0.0
 11
1366.35508292055
 21
1104.962056223632
 31
0.0
  0
LINE
  5
1129
330
44C
100
AcDbEntity
  8
寸法
 62
     0
370
    18
100
AcDbLine
 10
716.3550829205505
 20
1104.962056223632
 30
0.0
 11
1366.35508292055
 21
1104.962056223632
 31
0.0
  0
INSERT
  5
112A
330
44C
100
AcDbEntity
  8
寸法
 62
     0
370
    18
100
AcDbBlockReference
  2
_DotSmall
 10
716.3550829205505
 20
1104.962056223632
 30
0.0
 41
25.0
 42
25.0
 43
25.0
 50
180.0
  0
INSERT
  5
112B
330
44C
100
AcDbEntity
  8
寸法
 62
     0
370
    18
100
AcDbBlockReference
  2
_DotSmall
 10
1366.35508292055
 20
1104.962056223632
 30
0.0
 41
25.0
 42
25.0
 43
25.0
  0
MTEXT
  5
112C
330
44C
100
AcDbEntity
  8
寸法
 62
     0
100
AcDbMText
 10
1041.35508292055
 20
1123.712056223632
 30
0.0
 40
25.0
 41
0.0
 71
     5
 72
     1
  1
650
 73
     1
 44
1.0
1001
ACAD
1000
MTEXTBEGIN
1070
    73
1070
     1
1070
    44
1040
1.0
1070
    74
1070
     0
1000
MTEXTEND
  0
POINT
  5
112D
330
44C
100
AcDbEntity
  8
Defpoints
 62
     0
100
AcDbPoint
 10
716.3550829205505
 20
1252.894173993686
 30
0.0
  0
POINT
  5
112E
330
44C
100
AcDbEntity
  8
Defpoints
 62
     0
100
AcDbPoint
 10
1366.35508292055
 20
1252.894173993686
 30
0.0
  0
POINT
  5
112F
330
44C
100
AcDbEntity
  8
Defpoints
 62
     0
100
AcDbPoint
 10
1366.35508292055
 20
1104.962056223632
 30
0.0
  0
ENDBLK
  5
457
330
44C
100
AcDbEntity
  8
0
100
AcDbBlockEnd
  0
BLOCK
  5
465
330
459
100
AcDbEntity
  8
0
100
AcDbBlockBegin
  2
*D12
 70
     1
 10
0.0
 20
0.0
 30
0.0
  3
*D12
  1

  0
LINE
  5
111F
330
459
100
AcDbEntity
  8
寸法
 62
     0
370
    15
100
AcDbLine
 10
1366.35508292055
 20
1187.894173993686
 30
0.0
 11
1366.35508292055
 21
1104.962056223632
 31
0.0
  0
LINE
  5
1120
330
459
100
AcDbEntity
  8
寸法
 62
     0
370
    15
100
AcDbLine
 10
1381.35508292055
 20
1187.894173993686
 30
0.0
 11
1381.35508292055
 21
1104.962056223632
 31
0.0
  0
LINE
  5
1121
330
459
100
AcDbEntity
  8
寸法
 62
     0
370
    18
100
AcDbLine
 10
1366.35508292055
 20
1104.962056223632
 30
0.0
 11
1381.35508292055
 21
1104.962056223632
 31
0.0
  0
INSERT
  5
1122
330
459
100
AcDbEntity
  8
寸法
 62
     0
370
    18
100
AcDbBlockReference
  2
_DotSmall
 10
1366.35508292055
 20
1104.962056223632
 30
0.0
 41
25.0
 42
25.0
 43
25.0
 50
180.0
  0
INSERT
  5
1123
330
459
100
AcDbEntity
  8
寸法
 62
     0
370
    18
100
AcDbBlockReference
  2
_DotSmall
 10
1381.35508292055
 20
1104.962056223632
 30
0.0
 41
25.0
 42
25.0
 43
25.0
  0
POINT
  5
1124
330
459
100
AcDbEntity
  8
Defpoints
 62
     0
100
AcDbPoint
 10
1366.35508292055
 20
1252.894173993686
 30
0.0
  0
POINT
  5
1125
330
459
100
AcDbEntity
  8
Defpoints
 62
     0
100
AcDbPoint
 10
1381.35508292055
 20
1252.894173993686
 30
0.0
  0
POINT
  5
1126
330
459
100
AcDbEntity
  8
Defpoints
 62
     0
100
AcDbPoint
 10
1381.35508292055
 20
1104.962056223632
 30
0.0
  0
ENDBLK
  5
466
330
459
100
AcDbEntity
  8
0
100
AcDbBlockEnd
  0
BLOCK
  5
4AE
330
4A4
100
AcDbEntity
  8
0
100
AcDbBlockBegin
  2
*D13
 70
     1
 10
0.0
 20
0.0
 30
0.0
  3
*D13
  1

  0
LINE
  5
1116
330
4A4
100
AcDbEntity
  8
寸法
 62
     0
370
    15
100
AcDbLine
 10
701.3550829205505
 20
1187.894173993686
 30
0.0
 11
701.3550829205505
 21
1027.170146067762
 31
0.0
  0
LINE
  5
1117
330
4A4
100
AcDbEntity
  8
寸法
 62
     0
370
    15
100
AcDbLine
 10
1381.35508292055
 20
1187.894173993686
 30
0.0
 11
1381.35508292055
 21
1027.170146067762
 31
0.0
  0
LINE
  5
1118
330
4A4
100
AcDbEntity
  8
寸法
 62
     0
370
    18
100
AcDbLine
 10
701.3550829205505
 20
1027.170146067762
 30
0.0
 11
1381.35508292055
 21
1027.170146067762
 31
0.0
  0
INSERT
  5
1119
330
4A4
100
AcDbEntity
  8
寸法
 62
     0
370
    18
100
AcDbBlockReference
  2
_DotSmall
 10
701.3550829205505
 20
1027.170146067762
 30
0.0
 41
25.0
 42
25.0
 43
25.0
 50
180.0
  0
INSERT
  5
111A
330
4A4
100
AcDbEntity
  8
寸法
 62
     0
370
    18
100
AcDbBlockReference
  2
_DotSmall
 10
1381.35508292055
 20
1027.170146067762
 30
0.0
 41
25.0
 42
25.0
 43
25.0
  0
MTEXT
  5
111B
330
4A4
100
AcDbEntity
  8
寸法
 62
     0
100
AcDbMText
 10
1041.35508292055
 20
1045.920146067762
 30
0.0
 40
25.0
 41
0.0
 71
     5
 72
     1
  1
680
 73
     1
 44
1.0
1001
ACAD
1000
MTEXTBEGIN
1070
    73
1070
     1
1070
    44
1040
1.0
1070
    74
1070
     0
1000
MTEXTEND
  0
POINT
  5
111C
330
4A4
100
AcDbEntity
  8
Defpoints
 62
     0
100
AcDbPoint
 10
701.3550829205505
 20
1252.894173993686
 30
0.0
  0
POINT
  5
111D
330
4A4
100
AcDbEntity
  8
Defpoints
 62
     0
100
AcDbPoint
 10
1381.35508292055
 20
1252.894173993686
 30
0.0
  0
POINT
  5
111E
330
4A4
100
AcDbEntity
  8
Defpoints
 62
     0
100
AcDbPoint
 10
1381.35508292055
 20
1027.170146067762
 30
0.0
  0
ENDBLK
  5
4AF
330
4A4
100
AcDbEntity
  8
0
100
AcDbBlockEnd
  0
BLOCK
  5
503
330
4F9
100
AcDbEntity
  8
0
100
AcDbBlockBegin
  2
*D14
 70
     1
 10
0.0
 20
0.0
 30
0.0
  3
*D14
  1

  0
LINE
  5
119A
330
4F9
100
AcDbEntity
  8
寸法
 62
     0
370
    15
100
AcDbLine
 10
786.3550829205506
 20
542.8941739936862
 30
0.0
 11
786.3550829205506
 21
491.4667666926134
 31
0.0
  0
LINE
  5
119B
330
4F9
100
AcDbEntity
  8
寸法
 62
     0
370
    15
100
AcDbLine
 10
946.3550829205505
 20
542.8941739936862
 30
0.0
 11
946.3550829205505
 21
491.4667666926134
 31
0.0
  0
LINE
  5
119C
330
4F9
100
AcDbEntity
  8
寸法
 62
     0
370
    18
100
AcDbLine
 10
786.3550829205506
 20
491.4667666926134
 30
0.0
 11
946.3550829205505
 21
491.4667666926134
 31
0.0
  0
INSERT
  5
119D
330
4F9
100
AcDbEntity
  8
寸法
 62
     0
370
    18
100
AcDbBlockReference
  2
_DotSmall
 10
786.3550829205506
 20
491.4667666926134
 30
0.0
 41
25.0
 42
25.0
 43
25.0
 50
180.0
  0
INSERT
  5
119E
330
4F9
100
AcDbEntity
  8
寸法
 62
     0
370
    18
100
AcDbBlockReference
  2
_DotSmall
 10
946.3550829205505
 20
491.4667666926134
 30
0.0
 41
25.0
 42
25.0
 43
25.0
  0
MTEXT
  5
119F
330
4F9
100
AcDbEntity
  8
寸法
 62
     0
100
AcDbMText
 10
866.3550829205505
 20
510.2167666926134
 30
0.0
 40
25.0
 41
0.0
 71
     5
 72
     1
  1
158
 73
     1
 44
1.0
1001
ACAD
1000
MTEXTBEGIN
1070
    73
1070
     1
1070
    44
1040
1.0
1070
    74
1070
     0
1000
MTEXTEND
  0
POINT
  5
11A0
330
4F9
100
AcDbEntity
  8
Defpoints
 62
     0
100
AcDbPoint
 10
786.3550829205506
 20
607.8941739936863
 30
0.0
  0
POINT
  5
11A1
330
4F9
100
AcDbEntity
  8
Defpoints
 62
     0
100
AcDbPoint
 10
946.3550829205505
 20
607.8941739936863
 30
0.0
  0
POINT
  5
11A2
330
4F9
100
AcDbEntity
  8
Defpoints
 62
     0
100
AcDbPoint
 10
946.3550829205505
 20
491.4667666926134
 30
0.0
  0
ENDBLK
  5
504
330
4F9
100
AcDbEntity
  8
0
100
AcDbBlockEnd
  0
BLOCK
  5
510
330
506
100
AcDbEntity
  8
0
100
AcDbBlockBegin
  2
*D15
 70
     1
 10
0.0
 20
0.0
 30
0.0
  3
*D15
  1

  0
LINE
  5
1104
330
506
100
AcDbEntity
  8
寸法
 62
     0
370
    15
100
AcDbLine
 10
775.8550829205505
 20
542.8941739936864
 30
0.0
 11
775.8550829205505
 21
431.5073681236845
 31
0.0
  0
LINE
  5
1105
330
506
100
AcDbEntity
  8
寸法
 62
     0
370
    15
100
AcDbLine
 10
956.8550829205506
 20
542.8941739936862
 30
0.0
 11
956.8550829205506
 21
431.5073681236845
 31
0.0
  0
LINE
  5
1106
330
506
100
AcDbEntity
  8
寸法
 62
     0
370
    18
100
AcDbLine
 10
775.8550829205505
 20
431.5073681236845
 30
0.0
 11
956.8550829205506
 21
431.5073681236845
 31
0.0
  0
INSERT
  5
1107
330
506
100
AcDbEntity
  8
寸法
 62
     0
370
    18
100
AcDbBlockReference
  2
_DotSmall
 10
775.8550829205505
 20
431.5073681236845
 30
0.0
 41
25.0
 42
25.0
 43
25.0
 50
180.0
  0
INSERT
  5
1108
330
506
100
AcDbEntity
  8
寸法
 62
     0
370
    18
100
AcDbBlockReference
  2
_DotSmall
 10
956.8550829205506
 20
431.5073681236845
 30
0.0
 41
25.0
 42
25.0
 43
25.0
  0
MTEXT
  5
1109
330
506
100
AcDbEntity
  8
寸法
 62
     0
100
AcDbMText
 10
866.3550829205505
 20
450.2573681236845
 30
0.0
 40
25.0
 41
0.0
 71
     5
 72
     1
  1
181
 73
     1
 44
1.0
1001
ACAD
1000
MTEXTBEGIN
1070
    73
1070
     1
1070
    44
1040
1.0
1070
    74
1070
     0
1000
MTEXTEND
  0
POINT
  5
110A
330
506
100
AcDbEntity
  8
Defpoints
 62
     0
100
AcDbPoint
 10
775.8550829205505
 20
607.8941739936864
 30
0.0
  0
POINT
  5
110B
330
506
100
AcDbEntity
  8
Defpoints
 62
     0
100
AcDbPoint
 10
956.8550829205506
 20
607.8941739936863
 30
0.0
  0
POINT
  5
110C
330
506
100
AcDbEntity
  8
Defpoints
 62
     0
100
AcDbPoint
 10
956.8550829205506
 20
431.5073681236845
 30
0.0
  0
ENDBLK
  5
511
330
506
100
AcDbEntity
  8
0
100
AcDbBlockEnd
  0
BLOCK
  5
574
330
56A
100
AcDbEntity
  8
0
100
AcDbBlockBegin
  2
*D16
 70
     1
 10
0.0
 20
0.0
 30
0.0
  3
*D16
  1

  0
LINE
  5
1191
330
56A
100
AcDbEntity
  8
寸法
 62
     0
370
    15
100
AcDbLine
 10
2101.355082920551
 20
1567.894173993686
 30
0.0
 11
2146.66122701247
 21
1567.894173993686
 31
0.0
  0
LINE
  5
1192
330
56A
100
AcDbEntity
  8
寸法
 62
     0
370
    15
100
AcDbLine
 10
2101.355082920551
 20
1407.894173993686
 30
0.0
 11
2146.66122701247
 21
1407.894173993686
 31
0.0
  0
LINE
  5
1193
330
56A
100
AcDbEntity
  8
寸法
 62
     0
370
    18
100
AcDbLine
 10
2146.66122701247
 20
1567.894173993686
 30
0.0
 11
2146.66122701247
 21
1407.894173993686
 31
0.0
  0
INSERT
  5
1194
330
56A
100
AcDbEntity
  8
寸法
 62
     0
370
    18
100
AcDbBlockReference
  2
_DotSmall
 10
2146.66122701247
 20
1567.894173993686
 30
0.0
 41
25.0
 42
25.0
 43
25.0
 50
90.0
  0
INSERT
  5
1195
330
56A
100
AcDbEntity
  8
寸法
 62
     0
370
    18
100
AcDbBlockReference
  2
_DotSmall
 10
2146.66122701247
 20
1407.894173993686
 30
0.0
 41
25.0
 42
25.0
 43
25.0
 50
270.0
  0
MTEXT
  5
1196
330
56A
100
AcDbEntity
  8
寸法
 62
     0
100
AcDbMText
 10
2127.91122701247
 20
1487.894173993686
 30
0.0
 40
25.0
 41
0.0
 71
     5
 72
     1
  1
158
 11
0.0000000000000001
 21
1.0
 31
0.0
 73
     1
 44
1.0
1001
ACAD
1000
MTEXTBEGIN
1070
    73
1070
     1
1070
    44
1040
1.0
1070
    74
1070
     0
1000
MTEXTEND
  0
POINT
  5
1197
330
56A
100
AcDbEntity
  8
Defpoints
 62
     0
100
AcDbPoint
 10
2036.35508292055
 20
1567.894173993686
 30
0.0
  0
POINT
  5
1198
330
56A
100
AcDbEntity
  8
Defpoints
 62
     0
100
AcDbPoint
 10
2036.35508292055
 20
1407.894173993686
 30
0.0
  0
POINT
  5
1199
330
56A
100
AcDbEntity
  8
Defpoints
 62
     0
100
AcDbPoint
 10
2146.66122701247
 20
1407.894173993686
 30
0.0
  0
ENDBLK
  5
575
330
56A
100
AcDbEntity
  8
0
100
AcDbBlockEnd
  0
BLOCK
  5
58A
330
580
100
AcDbEntity
  8
0
100
AcDbBlockBegin
  2
*D17
 70
     1
 10
0.0
 20
0.0
 30
0.0
  3
*D17
  1

  0
LINE
  5
10F2
330
580
100
AcDbEntity
  8
寸法
 62
     0
370
    15
100
AcDbLine
 10
2101.355082920551
 20
1578.394173993686
 30
0.0
 11
2211.582814977313
 21
1578.394173993686
 31
0.0
  0
LINE
  5
10F3
330
580
100
AcDbEntity
  8
寸法
 62
     0
370
    15
100
AcDbLine
 10
2101.355082920551
 20
1397.394173993686
 30
0.0
 11
2211.582814977313
 21
1397.394173993686
 31
0.0
  0
LINE
  5
10F4
330
580
100
AcDbEntity
  8
寸法
 62
     0
370
    18
100
AcDbLine
 10
2211.582814977313
 20
1578.394173993686
 30
0.0
 11
2211.582814977313
 21
1397.394173993686
 31
0.0
  0
INSERT
  5
10F5
330
580
100
AcDbEntity
  8
寸法
 62
     0
370
    18
100
AcDbBlockReference
  2
_DotSmall
 10
2211.582814977313
 20
1578.394173993686
 30
0.0
 41
25.0
 42
25.0
 43
25.0
 50
90.0
  0
INSERT
  5
10F6
330
580
100
AcDbEntity
  8
寸法
 62
     0
370
    18
100
AcDbBlockReference
  2
_DotSmall
 10
2211.582814977313
 20
1397.394173993686
 30
0.0
 41
25.0
 42
25.0
 43
25.0
 50
270.0
  0
MTEXT
  5
10F7
330
580
100
AcDbEntity
  8
寸法
 62
     0
100
AcDbMText
 10
2192.832814977312
 20
1487.894173993686
 30
0.0
 40
25.0
 41
0.0
 71
     5
 72
     1
  1
181
 11
0.0000000000000001
 21
1.0
 31
0.0
 73
     1
 44
1.0
1001
ACAD
1000
MTEXTBEGIN
1070
    73
1070
     1
1070
    44
1040
1.0
1070
    74
1070
     0
1000
MTEXTEND
  0
POINT
  5
10F8
330
580
100
AcDbEntity
  8
Defpoints
 62
     0
100
AcDbPoint
 10
2036.35508292055
 20
1578.394173993686
 30
0.0
  0
POINT
  5
10F9
330
580
100
AcDbEntity
  8
Defpoints
 62
     0
100
AcDbPoint
 10
2036.35508292055
 20
1397.394173993686
 30
0.0
  0
POINT
  5
10FA
330
580
100
AcDbEntity
  8
Defpoints
 62
     0
100
AcDbPoint
 10
2211.582814977313
 20
1397.394173993686
 30
0.0
  0
ENDBLK
  5
58B
330
580
100
AcDbEntity
  8
0
100
AcDbBlockEnd
  0
BLOCK
  5
10C2
330
10B9
100
AcDbEntity
  8
0
100
AcDbBlockBegin
  2
*D18
 70
     1
 10
0.0
 20
0.0
 30
0.0
  3
*D18
  1

  0
LINE
  5
10EA
330
10B9
100
AcDbEntity
  8
寸法
 62
     0
370
    15
100
AcDbLine
 10
2026.35508292055
 20
1190.054331641208
 30
0.0
 11
2026.35508292055
 21
1134.147597603774
 31
0.0
  0
LINE
  5
10EB
330
10B9
100
AcDbEntity
  8
寸法
 62
     0
370
    15
100
AcDbLine
 10
2011.35508292055
 20
1190.054331641208
 30
0.0
 11
2011.35508292055
 21
1134.147597603774
 31
0.0
  0
LINE
  5
10EC
330
10B9
100
AcDbEntity
  8
寸法
 62
     0
370
    18
100
AcDbLine
 10
2026.35508292055
 20
1134.147597603774
 30
0.0
 11
2011.35508292055
 21
1134.147597603774
 31
0.0
  0
INSERT
  5
10ED
330
10B9
100
AcDbEntity
  8
寸法
 62
     0
370
    18
100
AcDbBlockReference
  2
_DotSmall
 10
2026.35508292055
 20
1134.147597603774
 30
0.0
 41
25.0
 42
25.0
 43
25.0
  0
INSERT
  5
10EE
330
10B9
100
AcDbEntity
  8
寸法
 62
     0
370
    18
100
AcDbBlockReference
  2
_DotSmall
 10
2011.35508292055
 20
1134.147597603774
 30
0.0
 41
25.0
 42
25.0
 43
25.0
 50
180.0
  0
POINT
  5
10EF
330
10B9
100
AcDbEntity
  8
Defpoints
 62
     0
100
AcDbPoint
 10
2026.35508292055
 20
1255.054331641209
 30
0.0
  0
POINT
  5
10F0
330
10B9
100
AcDbEntity
  8
Defpoints
 62
     0
100
AcDbPoint
 10
2011.35508292055
 20
1255.054331641209
 30
0.0
  0
POINT
  5
10F1
330
10B9
100
AcDbEntity
  8
Defpoints
 62
     0
100
AcDbPoint
 10
2011.35508292055
 20
1134.147597603774
 30
0.0
  0
ENDBLK
  5
10C3
330
10B9
100
AcDbEntity
  8
0
100
AcDbBlockEnd
  0
BLOCK
  5
10CE
330
10C4
100
AcDbEntity
  8
0
100
AcDbBlockBegin
  2
*D19
 70
     1
 10
0.0
 20
0.0
 30
0.0
  3
*D19
  1

  0
LINE
  5
10E1
330
10C4
100
AcDbEntity
  8
寸法
 62
     0
370
    15
100
AcDbLine
 10
2026.35508292055
 20
1166.760370420771
 30
0.0
 11
2026.35508292055
 21
1070.775910704731
 31
0.0
  0
LINE
  5
10E2
330
10C4
100
AcDbEntity
  8
寸法
 62
     0
370
    15
100
AcDbLine
 10
1836.35508292055
 20
1188.353707349996
 30
0.0
 11
1836.35508292055
 21
1070.775910704731
 31
0.0
  0
LINE
  5
10E3
330
10C4
100
AcDbEntity
  8
寸法
 62
     0
370
    18
100
AcDbLine
 10
2026.35508292055
 20
1070.775910704731
 30
0.0
 11
1836.35508292055
 21
1070.775910704731
 31
0.0
  0
INSERT
  5
10E4
330
10C4
100
AcDbEntity
  8
寸法
 62
     0
370
    18
100
AcDbBlockReference
  2
_DotSmall
 10
2026.35508292055
 20
1070.775910704731
 30
0.0
 41
25.0
 42
25.0
 43
25.0
  0
INSERT
  5
10E5
330
10C4
100
AcDbEntity
  8
寸法
 62
     0
370
    18
100
AcDbBlockReference
  2
_DotSmall
 10
1836.35508292055
 20
1070.775910704731
 30
0.0
 41
25.0
 42
25.0
 43
25.0
 50
180.0
  0
MTEXT
  5
10E6
330
10C4
100
AcDbEntity
  8
寸法
 62
     0
100
AcDbMText
 10
1931.355082920551
 20
1089.525910704731
 30
0.0
 40
25.0
 41
0.0
 71
     5
 72
     1
  1
190
 73
     1
 44
1.0
1001
ACAD
1000
MTEXTBEGIN
1070
    73
1070
     1
1070
    44
1040
1.0
1070
    74
1070
     0
1000
MTEXTEND
  0
POINT
  5
10E7
330
10C4
100
AcDbEntity
  8
Defpoints
 62
     0
100
AcDbPoint
 10
2026.35508292055
 20
1231.760370420771
 30
0.0
  0
POINT
  5
10E8
330
10C4
100
AcDbEntity
  8
Defpoints
 62
     0
100
AcDbPoint
 10
1836.35508292055
 20
1253.353707349996
 30
0.0
  0
POINT
  5
10E9
330
10C4
100
AcDbEntity
  8
Defpoints
 62
     0
100
AcDbPoint
 10
1836.35508292055
 20
1070.775910704731
 30
0.0
  0
ENDBLK
  5
10CF
330
10C4
100
AcDbEntity
  8
0
100
AcDbBlockEnd
  0
ENDSEC
  0
SECTION
  2
ENTITIES
  0
LINE
  5
9C
330
1F
100
AcDbEntity
  8
補助
100
AcDbLine
 10
104.0
 20
4.0
 30
0.0
 11
2784.0
 21
4.0
 31
0.0
  0
LINE
  5
A0
330
1F
100
AcDbEntity
  8
補助
100
AcDbLine
 10
2784.0
 20
2024.0
 30
0.0
 11
104.0
 21
2024.0
 31
0.0
  0
LINE
  5
A5
330
1F
100
AcDbEntity
  8
補助
100
AcDbLine
 10
2784.0
 20
4.0
 30
0.0
 11
2784.0
 21
2024.0
 31
0.0
  0
LINE
  5
2E6
330
1F
100
AcDbEntity
  8
実形
100
AcDbLine
 10
701.3550829205505
 20
807.8941739936862
 30
0.0
 11
1381.35508292055
 21
807.8941739936862
 31
0.0
  0
CIRCLE
  5
2EB
330
1F
100
AcDbEntity
  8
実形
100
AcDbCircle
 10
866.3550829205505
 20
1487.894173993686
 30
0.0
 40
79.0
  0
CIRCLE
  5
2EE
330
1F
100
AcDbEntity
  8
実形
100
AcDbCircle
 10
866.3550829205505
 20
1487.894173993686
 30
0.0
 40
90.5
  0
LINE
  5
2F9
330
1F
100
AcDbEntity
  8
実形
100
AcDbLine
 10
775.8550829205505
 20
617.8941739936862
 30
0.0
 11
946.3550829205505
 21
617.8941739936862
 31
0.0
  0
LINE
  5
2FA
330
1F
100
AcDbEntity
  8
実形
100
AcDbLine
 10
946.3550829205505
 20
617.8941739936862
 30
0.0
 11
956.8550829205506
 21
617.8941739936862
 31
0.0
  0
LINE
  5
2FB
330
1F
100
AcDbEntity
  8
実形
100
AcDbLine
 10
956.8550829205506
 20
617.8941739936862
 30
0.0
 11
956.8550829205506
 21
617.8941739936862
 31
0.0
  0
LINE
  5
2FE
330
1F
100
AcDbEntity
  8
実形
100
AcDbLine
 10
1836.35508292055
 20
1722.894173993686
 30
0.0
 11
1836.35508292055
 21
1252.894173993686
 31
0.0
  0
LINE
  5
301
330
1F
100
AcDbEntity
  8
実形
100
AcDbLine
 10
2026.35508292055
 20
1397.394173993686
 30
0.0
 11
2026.35508292055
 21
1578.394173993686
 31
0.0
  0
LINE
  5
306
330
1F
100
AcDbEntity
  8
実形
100
AcDbLine
 10
775.8550829205505
 20
617.8941739936862
 30
0.0
 11
775.8550829205505
 21
607.8941739936863
 31
0.0
  0
LINE
  5
307
330
1F
100
AcDbEntity
  8
実形
100
AcDbLine
 10
775.8550829205505
 20
607.8941739936863
 30
0.0
 11
956.8550829205506
 21
607.8941739936863
 31
0.0
  0
LINE
  5
308
330
1F
100
AcDbEntity
  8
実形
100
AcDbLine
 10
956.8550829205506
 20
607.8941739936863
 30
0.0
 11
956.8550829205506
 21
617.8941739936862
 31
0.0
  0
LINE
  5
309
330
1F
100
AcDbEntity
  8
実形
100
AcDbLine
 10
2026.35508292055
 20
1578.394173993686
 30
0.0
 11
2036.35508292055
 21
1578.394173993686
 31
0.0
  0
LINE
  5
30A
330
1F
100
AcDbEntity
  8
実形
100
AcDbLine
 10
2036.35508292055
 20
1578.394173993686
 30
0.0
 11
2036.35508292055
 21
1397.394173993686
 31
0.0
  0
LINE
  5
30B
330
1F
100
AcDbEntity
  8
実形
100
AcDbLine
 10
2036.35508292055
 20
1397.394173993686
 30
0.0
 11
2026.35508292055
 21
1397.394173993686
 31
0.0
  0
LINE
  5
33A
330
1F
100
AcDbEntity
  8
センター
370
    15
100
AcDbLine
 10
691.0515308405547
 20
1487.894173993686
 30
0.0
 11
1041.658635000546
 21
1487.894173993686
 31
0.0
  0
LINE
  5
33B
330
1F
100
AcDbEntity
  8
センター
370
    15
100
AcDbLine
 10
866.3550829205505
 20
1678.197726073682
 30
0.0
 11
866.3550829205505
 21
1297.59062191369
 31
0.0
  0
LINE
  5
33C
330
1F
100
AcDbEntity
  8
センター
 48
0.5
370
    15
100
AcDbLine
 10
866.3550829205505
 20
696.1107978690997
 30
0.0
 11
866.3550829205505
 21
539.6949775617995
 31
0.0
  0
LINE
  5
33D
330
1F
100
AcDbEntity
  8
センター
 48
0.5
370
    15
100
AcDbLine
 10
1909.819294241593
 20
1487.894173993686
 30
0.0
 11
2058.730246498655
 21
1487.894173993686
 31
0.0
  0
DIMENSION
  5
35B
330
1F
100
AcDbEntity
  8
寸法
100
AcDbDimension
  2
*D4
 10
716.3550829205505
 20
1801.697292157095
 30
0.0
 11
791.3550829205505
 21
1820.447292157094
 31
0.0
 70
    32
 71
     5
 42
150.0
  3
ISO-25
100
AcDbAlignedDimension
 13
866.3550829205505
 23
1578.394173993686
 33
0.0
 14
716.3550829205505
 24
1487.894173993686
 34
0.0
100
AcDbRotatedDimension
1001
ACAD
1000
DSTYLE
1002
{
1070
    41
1040
25.0
1070
   371
1070
    18
1002
}
  0
DIMENSION
  5
368
330
1F
100
AcDbEntity
  8
寸法
100
AcDbDimension
  2
*D5
 10
1041.35508292055
 20
1707.894173993686
 30
0.0
 11
1022.60508292055
 21
1597.894173993686
 31
0.0
 70
    32
 71
     5
 42
220.0
  3
ISO-25
100
AcDbAlignedDimension
 13
956.8550829205506
 23
1487.894173993686
 33
0.0
 14
1101.85142950885
 24
1707.894173993686
 34
0.0
 50
90.0
100
AcDbRotatedDimension
1001
ACAD
1000
DSTYLE
1002
{
1070
    41
1040
25.0
1070
   371
1070
    18
1002
}
  0
TEXT
  5
395
330
1F
100
AcDbEntity
  8
寸法
370
    18
100
AcDbText
 10
1034.341222539227
 20
1315.769813875714
 30
0.0
 40
25.0
  1
2100R
100
AcDbText
  0
TEXT
  5
397
330
1F
100
AcDbEntity
  8
寸法
370
    18
100
AcDbText
 10
1170.731204503474
 20
1516.023716244719
 30
0.0
 40
25.0
  1
1300R
100
AcDbText
  0
TEXT
  5
398
330
1F
100
AcDbEntity
  8
寸法
370
    18
100
AcDbText
 10
1188.677261766066
 20
1354.646314366435
 30
0.0
 40
25.0
  1
110R
100
AcDbText
  0
TEXT
  5
3AF
330
1F
100
AcDbEntity
  8
寸法
100
AcDbText
 10
1228.553288885251
 20
677.1689529547461
 30
0.0
 40
25.0
  1
30R
100
AcDbText
  0
TEXT
  5
3B1
330
1F
100
AcDbEntity
  8
寸法
370
    18
100
AcDbText
 10
1888.891667581415
 20
1326.377802052132
 30
0.0
 40
25.0
  1
30R
100
AcDbText
  0
DIMENSION
  5
3CE
330
1F
100
AcDbEntity
  8
寸法
100
AcDbDimension
  2
*D6
 10
558.1797681966772
 20
1707.894173993686
 30
0.0
 11
558.179768196677
 21
1715.394173993686
 31
0.0
 70
    32
  1
 
 71
     5
 42
15.0
  3
ISO-25
100
AcDbAlignedDimension
 13
701.3550829205505
 23
1722.894173993686
 33
0.0
 14
701.3550829205505
 24
1707.894173993686
 34
0.0
 50
90.0
100
AcDbRotatedDimension
1001
ACAD
1000
DSTYLE
1002
{
1070
    41
1040
25.0
1070
   371
1070
    18
1002
}
  0
DIMENSION
  5
3DC
330
1F
100
AcDbEntity
  8
寸法
100
AcDbDimension
  2
*D7
 10
558.1797681966772
 20
1267.894173993686
 30
0.0
 11
539.4297681966771
 21
1487.894173993686
 31
0.0
 70
    32
 71
     5
 42
440.0
  3
ISO-25
100
AcDbAlignedDimension
 13
701.3550829205505
 23
1707.894173993686
 33
0.0
 14
701.3550829205505
 24
1267.894173993686
 34
0.0
 50
90.0
100
AcDbRotatedDimension
1001
ACAD
1000
DSTYLE
1002
{
1070
    41
1040
25.0
1070
   371
1070
    18
1070
   279
1070
     1
1002
}
  0
DIMENSION
  5
3E9
330
1F
100
AcDbEntity
  8
寸法
370
    18
100
AcDbDimension
  2
*D8
 10
558.1797681966772
 20
1252.894173993686
 30
0.0
 11
562.6136624920918
 21
1210.20993328546
 31
0.0
 70
   160
 71
     5
 42
15.0
  3
ISO-25
100
AcDbAlignedDimension
 13
701.3550829205505
 23
1267.894173993686
 33
0.0
 14
701.3550829205505
 24
1252.894173993686
 34
0.0
 50
90.0
100
AcDbRotatedDimension
1001
ACAD
1000
DSTYLE
1002
{
1070
    41
1040
25.0
1070
   371
1070
    18
1070
   279
1070
     1
1002
}
  0
DIMENSION
  5
3F6
330
1F
100
AcDbEntity
  8
寸法
100
AcDbDimension
  2
*D9
 10
489.3398698719929
 20
1252.894173993686
 30
0.0
 11
470.5898698719927
 21
1487.894173993686
 31
0.0
 70
    32
 71
     5
 42
470.0
  3
ISO-25
100
AcDbAlignedDimension
 13
701.3550829205505
 23
1722.894173993686
 33
0.0
 14
701.3550829205505
 24
1252.894173993686
 34
0.0
 50
90.0
100
AcDbRotatedDimension
1001
ACAD
1000
DSTYLE
1002
{
1070
    41
1040
25.0
1070
   371
1070
    18
1002
}
  0
TEXT
  5
43C
330
1F
100
AcDbEntity
  8
寸法
370
    18
100
AcDbText
 10
562.6136624920918
 20
1748.145346933012
 30
0.0
 40
25.0
  1
15
 50
90.0
100
AcDbText
  0
DIMENSION
  5
43D
330
1F
100
AcDbEntity
  8
寸法
100
AcDbDimension
  2
*D10
 10
716.3550829205505
 20
1104.962056223632
 30
0.0
 11
775.8550829205505
 21
1104.962056223632
 31
0.0
 70
   160
  1
 
 71
     5
 42
15.0
  3
ISO-25
100
AcDbAlignedDimension
 13
701.3550829205505
 23
1252.894173993686
 33
0.0
 14
716.3550829205505
 24
1252.894173993686
 34
0.0
100
AcDbRotatedDimension
1001
ACAD
1000
DSTYLE
1002
{
1070
    41
1040
25.0
1070
   371
1070
    18
1002
}
  0
DIMENSION
  5
44B
330
1F
100
AcDbEntity
  8
寸法
100
AcDbDimension
  2
*D11
 10
1366.35508292055
 20
1104.962056223632
 30
0.0
 11
1041.35508292055
 21
1123.712056223632
 31
0.0
 70
    32
 71
     5
 42
650.0
  3
ISO-25
100
AcDbAlignedDimension
 13
716.3550829205505
 23
1252.894173993686
 33
0.0
 14
1366.35508292055
 24
1252.894173993686
 34
0.0
100
AcDbRotatedDimension
1001
ACAD
1000
DSTYLE
1002
{
1070
    41
1040
25.0
1070
   371
1070
    18
1070
   279
1070
     1
1002
}
  0
DIMENSION
  5
458
330
1F
100
AcDbEntity
  8
寸法
100
AcDbDimension
  2
*D12
 10
1381.35508292055
 20
1104.962056223632
 30
0.0
 11
1373.85508292055
 21
1104.962056223632
 31
0.0
 70
    32
  1
 
 71
     5
 42
15.0
  3
ISO-25
100
AcDbAlignedDimension
 13
1366.35508292055
 23
1252.894173993686
 33
0.0
 14
1381.35508292055
 24
1252.894173993686
 34
0.0
100
AcDbRotatedDimension
1001
ACAD
1000
DSTYLE
1002
{
1070
    41
1040
25.0
1070
   371
1070
    18
1070
   279
1070
     1
1002
}
  0
TEXT
  5
494
330
1F
100
AcDbEntity
  8
寸法
100
AcDbText
 10
642.7568664743348
 20
1107.250053858027
 30
0.0
 40
25.0
  1
15
100
AcDbText
  0
TEXT
  5
495
330
1F
100
AcDbEntity
  8
寸法
370
    18
100
AcDbText
 10
1404.618542967144
 20
1107.250053858027
 30
0.0
 40
25.0
  1
15
100
AcDbText
  0
DIMENSION
  5
4A3
330
1F
100
AcDbEntity
  8
寸法
100
AcDbDimension
  2
*D13
 10
1381.35508292055
 20
1027.170146067762
 30
0.0
 11
1041.35508292055
 21
1045.920146067762
 31
0.0
 70
    32
 71
     5
 42
680.0
  3
ISO-25
100
AcDbAlignedDimension
 13
701.3550829205505
 23
1252.894173993686
 33
0.0
 14
1381.35508292055
 24
1252.894173993686
 34
0.0
100
AcDbRotatedDimension
1001
ACAD
1000
DSTYLE
1002
{
1070
    41
1040
25.0
1070
   371
1070
    18
1002
}
  0
DIMENSION
  5
4F8
330
1F
100
AcDbEntity
  8
寸法
100
AcDbDimension
  2
*D14
 10
946.3550829205505
 20
491.4667666926134
 30
0.0
 11
866.3550829205505
 21
510.2167666926134
 31
0.0
 70
    32
  1
158
 71
     5
 42
160.0
  3
ISO-25
100
AcDbAlignedDimension
 13
786.3550829205506
 23
607.8941739936863
 33
0.0
 14
946.3550829205505
 24
607.8941739936863
 34
0.0
100
AcDbRotatedDimension
1001
ACAD
1000
DSTYLE
1002
{
1070
    41
1040
25.0
1070
   371
1070
    18
1002
}
  0
DIMENSION
  5
505
330
1F
100
AcDbEntity
  8
寸法
100
AcDbDimension
  2
*D15
 10
956.8550829205506
 20
431.5073681236845
 30
0.0
 11
866.3550829205505
 21
450.2573681236845
 31
0.0
 70
    32
 71
     5
 42
181.0
  3
ISO-25
100
AcDbAlignedDimension
 13
775.8550829205505
 23
607.8941739936864
 33
0.0
 14
956.8550829205506
 24
607.8941739936863
 34
0.0
100
AcDbRotatedDimension
1001
ACAD
1000
DSTYLE
1002
{
1070
    41
1040
25.0
1070
   371
1070
    18
1002
}
  0
DIMENSION
  5
569
330
1F
100
AcDbEntity
  8
寸法
100
AcDbDimension
  2
*D16
 10
2146.66122701247
 20
1407.894173993686
 30
0.0
 11
2127.91122701247
 21
1487.894173993686
 31
0.0
 70
    32
  1
158
 71
     5
 42
160.0
  3
ISO-25
100
AcDbAlignedDimension
 13
2036.35508292055
 23
1567.894173993686
 33
0.0
 14
2036.35508292055
 24
1407.894173993686
 34
0.0
 50
90.0
100
AcDbRotatedDimension
1001
ACAD
1000
DSTYLE
1002
{
1070
    41
1040
25.0
1070
   371
1070
    18
1002
}
  0
DIMENSION
  5
57F
330
1F
100
AcDbEntity
  8
寸法
100
AcDbDimension
  2
*D17
 10
2211.582814977313
 20
1397.394173993686
 30
0.0
 11
2192.832814977312
 21
1487.894173993686
 31
0.0
 70
    32
 71
     5
 42
181.0
  3
ISO-25
100
AcDbAlignedDimension
 13
2036.35508292055
 23
1578.394173993686
 33
0.0
 14
2036.35508292055
 24
1397.394173993686
 34
0.0
 50
90.0
100
AcDbRotatedDimension
1001
ACAD
1000
DSTYLE
1002
{
1070
    41
1040
25.0
1070
   371
1070
    18
1002
}
  0
LEADER
  5
7CF
330
1F
100
AcDbEntity
  8
0
100
AcDbLeader
  3
ISO-25
 40
25.0
 41
16.66666666666666
 76
     2
 10
979.5469531769404
 20
1276.883648958411
 30
0.0
 10
1018.769362371585
 20
1311.72047517713
 30
0.0
213
0.0
223
-12.5
233
0.0
1001
ACAD
1000
DSTYLE
1002
{
1070
    41
1040
25.0
1070
   147
1040
6.25
1070
    77
1070
     0
1070
    73
1070
     1
1070
    74
1070
     1
1070
   279
1070
     1
1070
   342
1005
DA
1002
}
  0
LEADER
  5
7D0
330
1F
100
AcDbEntity
  8
0
100
AcDbLeader
  3
ISO-25
 40
25.0
 41
16.66666666666666
 76
     2
 10
1358.713530378306
 20
1527.03222358092
 30
0.0
 10
1284.62675653922
 20
1529.209525808052
 30
0.0
213
0.0
223
-12.5
233
0.0
1001
ACAD
1000
DSTYLE
1002
{
1070
    41
1040
25.0
1070
   147
1040
6.25
1070
    77
1070
     0
1070
    73
1070
     1
1070
    74
1070
     1
1070
   279
1070
     1
1070
   342
1005
DA
1002
}
  0
LEADER
  5
7D1
330
1F
100
AcDbEntity
  8
0
100
AcDbLeader
  3
ISO-25
 40
25.0
 41
16.66666666666666
 76
     2
 10
1323.592226202973
 20
1318.12436037281
 30
0.0
 10
1275.653727907923
 20
1348.606582137266
 30
0.0
213
0.0
223
-12.5
233
0.0
1001
ACAD
1000
DSTYLE
1002
{
1070
    41
1040
25.0
1070
   147
1040
6.25
1070
    77
1070
     0
1070
    73
1070
     1
1070
    74
1070
     1
1070
   279
1070
     1
1070
   342
1005
DA
1002
}
  0
LEADER
  5
7D2
330
1F
100
AcDbEntity
  8
0
100
AcDbLeader
  3
ISO-25
 40
25.0
 41
16.66666666666666
 76
     2
 10
1349.997433035082
 20
647.6434842097196
 30
0.0
 10
1302.058934740032
 20
678.1257059741747
 30
0.0
213
0.0
223
-12.5
233
0.0
1001
ACAD
1000
DSTYLE
1002
{
1070
    41
1040
25.0
1070
   147
1040
6.25
1070
    77
1070
     0
1070
    73
1070
     1
1070
    74
1070
     1
1070
   279
1070
     1
1070
   342
1005
DA
1002
}
  0
LEADER
  5
7D3
330
1F
100
AcDbEntity
  8
0
100
AcDbLeader
  3
ISO-25
 40
25.0
 41
16.66666666666666
 76
     2
 10
2003.704230964965
 20
1285.59285786694
 30
0.0
 10
1966.660852288239
 20
1322.606981605092
 30
0.0
213
0.0
223
-12.5
233
0.0
1001
ACAD
1000
DSTYLE
1002
{
1070
    41
1040
25.0
1070
   147
1040
6.25
1070
    77
1070
     0
1070
    73
1070
     1
1070
    74
1070
     1
1070
   279
1070
     1
1070
   342
1005
DA
1002
}
  0
TEXT
  5
8C9
330
1F
100
AcDbEntity
  8
0
100
AcDbText
 10
249.2632881086038
 20
83.52862940911927
 30
0.0
 40
30.0
  1
※実寸には製造上の誤差が多少生ずる場合があります。シンクの穴あけ加工は現物合わせにてお願いします。
100
AcDbText
  0
ARC
  5
F11
330
1F
100
AcDbEntity
  8
実形
100
AcDbCircle
 10
1041.35508292055
 20
3367.894173993686
 30
0.0
 40
2100.0
100
AcDbArc
 50
263.9166063649692
 51
276.0833936350309
  0
ARC
  5
F12
330
1F
100
AcDbEntity
  8
実形
100
AcDbCircle
 10
1041.35508292055
 20
-392.1058260063137
 30
0.0
 40
2100.0
100
AcDbArc
 50
83.91660636496917
 51
96.08339363503082
  0
ARC
  5
F19
330
1F
100
AcDbEntity
  8
実形
100
AcDbCircle
 10
66.35508292055056
 20
1487.894173993686
 30
0.0
 40
1300.0
100
AcDbArc
 50
355.237827315748
 51
4.762172684252075
  0
ARC
  5
F1A
330
1F
100
AcDbEntity
  8
実形
100
AcDbCircle
 10
2016.355082920551
 20
1487.894173993686
 30
0.0
 40
1300.0
100
AcDbArc
 50
175.2378273157479
 51
184.762172684252
  0
ARC
  5
F1B
330
1F
100
AcDbEntity
  8
実形
100
AcDbCircle
 10
1252.24706859379
 20
1586.687889967839
 30
0.0
 40
110.0
100
AcDbArc
 50
4.762172684252022
 51
83.9166063649692
  0
ARC
  5
F1C
330
1F
100
AcDbEntity
  8
実形
100
AcDbCircle
 10
1252.24706859379
 20
1389.100458019533
 30
0.0
 40
110.0
100
AcDbArc
 50
276.083393635031
 51
355.237827315748
  0
ARC
  5
F1D
330
1F
100
AcDbEntity
  8
実形
100
AcDbCircle
 10
830.4630972473113
 20
1389.100458019533
 30
0.0
 40
110.0
100
AcDbArc
 50
184.7621726842521
 51
263.9166063649685
  0
ARC
  5
F1E
330
1F
100
AcDbEntity
  8
実形
100
AcDbCircle
 10
830.4630972473113
 20
1586.687889967839
 30
0.0
 40
110.0
100
AcDbArc
 50
96.0833936350307
 51
175.2378273157477
  0
ARC
  5
F1F
330
1F
100
AcDbEntity
  8
実形
100
AcDbCircle
 10
1252.24706859379
 20
1586.687889967839
 30
0.0
 40
125.0
100
AcDbArc
 50
4.762172684252022
 51
83.9166063649692
  0
ARC
  5
F20
330
1F
100
AcDbEntity
  8
実形
100
AcDbCircle
 10
66.35508292055056
 20
1487.894173993686
 30
0.0
 40
1315.0
100
AcDbArc
 50
355.237827315748
 51
4.762172684252075
  0
ARC
  5
F21
330
1F
100
AcDbEntity
  8
実形
100
AcDbCircle
 10
1252.24706859379
 20
1389.100458019533
 30
0.0
 40
125.0
100
AcDbArc
 50
276.083393635031
 51
355.237827315748
  0
ARC
  5
F22
330
1F
100
AcDbEntity
  8
実形
100
AcDbCircle
 10
1041.35508292055
 20
3367.894173993686
 30
0.0
 40
2115.0
100
AcDbArc
 50
263.9166063649692
 51
276.0833936350309
  0
ARC
  5
F23
330
1F
100
AcDbEntity
  8
実形
100
AcDbCircle
 10
830.4630972473113
 20
1389.100458019533
 30
0.0
 40
125.0
100
AcDbArc
 50
184.7621726842521
 51
263.9166063649685
  0
ARC
  5
F24
330
1F
100
AcDbEntity
  8
実形
100
AcDbCircle
 10
2016.355082920551
 20
1487.894173993686
 30
0.0
 40
1315.0
100
AcDbArc
 50
175.2378273157479
 51
184.762172684252
  0
ARC
  5
F25
330
1F
100
AcDbEntity
  8
実形
100
AcDbCircle
 10
830.4630972473113
 20
1586.687889967839
 30
0.0
 40
125.0
100
AcDbArc
 50
96.0833936350307
 51
175.2378273157477
  0
ARC
  5
F26
330
1F
100
AcDbEntity
  8
実形
100
AcDbCircle
 10
1041.35508292055
 20
-392.1058260063137
 30
0.0
 40
2115.0
100
AcDbArc
 50
83.91660636496917
 51
96.08339363503082
  0
LINE
  5
F27
330
1F
100
AcDbEntity
  8
実形
100
AcDbLine
 10
701.3550829205505
 20
807.8941739936862
 30
0.0
 11
1381.35508292055
 21
807.8941739936862
 31
0.0
  0
LINE
  5
F28
330
1F
100
AcDbEntity
  8
実形
100
AcDbLine
 10
1366.35508292055
 20
807.8941739936862
 30
0.0
 11
1366.35508292055
 21
661.815392541868
 31
0.0
  0
LINE
  5
F29
330
1F
100
AcDbEntity
  8
実形
100
AcDbLine
 10
1337.453247529972
 20
631.8354987046542
 30
0.0
 11
956.8550829205506
 21
617.8941739936862
 31
0.0
  0
LINE
  5
F2A
330
1F
100
AcDbEntity
  8
実形
100
AcDbLine
 10
716.3550829205505
 20
807.8941739936862
 30
0.0
 11
716.3550829205505
 21
656.2697872528103
 31
0.0
  0
LINE
  5
F2B
330
1F
100
AcDbEntity
  8
実形
100
AcDbLine
 10
739.0215101607688
 20
627.1799486390094
 30
0.0
 11
775.8550829205505
 21
617.8941739936862
 31
0.0
  0
ARC
  5
F2C
330
1F
100
AcDbEntity
  8
実形
100
AcDbCircle
 10
746.3550829205505
 20
656.2697872528103
 30
0.0
 40
30.0
100
AcDbArc
 50
180.0
 51
255.8505239136548
  0
ARC
  5
F2D
330
1F
100
AcDbEntity
  8
実形
100
AcDbCircle
 10
1336.35508292055
 20
661.815392541868
 30
0.0
 40
30.0
100
AcDbArc
 50
272.0978085861922
 51
0.0
  0
LINE
  5
F2E
330
1F
100
AcDbEntity
  8
実形
100
AcDbLine
 10
1836.35508292055
 20
1707.894173993686
 30
0.0
 11
1984.629407689742
 21
1707.894173993686
 31
0.0
  0
LINE
  5
F2F
330
1F
100
AcDbEntity
  8
実形
100
AcDbLine
 10
2014.43016113788
 20
1681.345998717409
 30
0.0
 11
2026.35508292055
 21
1578.394173993686
 31
0.0
  0
LINE
  5
F30
330
1F
100
AcDbEntity
  8
実形
100
AcDbLine
 10
2026.35508292055
 20
1397.394173993686
 30
0.0
 11
2014.43016113788
 21
1294.442349269963
 31
0.0
  0
LINE
  5
F31
330
1F
100
AcDbEntity
  8
実形
100
AcDbLine
 10
1984.629407689742
 20
1267.894173993686
 30
0.0
 11
1836.35508292055
 21
1267.894173993686
 31
0.0
  0
ARC
  5
F32
330
1F
100
AcDbEntity
  8
実形
100
AcDbCircle
 10
1984.629407689742
 20
1677.894173993686
 30
0.0
 40
30.0
100
AcDbArc
 50
6.607133302227483
 51
90.0
  0
ARC
  5
F33
330
1F
100
AcDbEntity
  8
実形
100
AcDbCircle
 10
1984.629407689742
 20
1297.894173993686
 30
0.0
 40
30.0
100
AcDbArc
 50
270.0
 51
353.3928666977725
  0
TEXT
  5
1014
330
1F
100
AcDbEntity
  8
補助
100
AcDbText
 10
2086.666666666667
 20
84.0
 30
0.0
 40
35.0
  1
尺度
 72
     4
 11
2124.0
 21
101.5
 31
0.0
100
AcDbText
  0
TEXT
  5
1015
330
1F
100
AcDbEntity
  8
補助
100
AcDbText
 10
2086.666666666667
 20
149.0
 30
0.0
 40
35.0
  1
品番
 72
     4
 11
2124.0
 21
166.5
 31
0.0
100
AcDbText
  0
LINE
  5
1016
330
1F
100
AcDbEntity
  8
補助
100
AcDbLine
 10
2064.0
 20
69.0
 30
0.0
 11
2784.0
 21
69.0
 31
0.0
  0
LINE
  5
1017
330
1F
100
AcDbEntity
  8
補助
100
AcDbLine
 10
2064.0
 20
199.0
 30
0.0
 11
2784.0
 21
199.0
 31
0.0
  0
LINE
  5
1018
330
1F
100
AcDbEntity
  8
補助
100
AcDbLine
 10
2064.0
 20
134.0
 30
0.0
 11
2784.0
 21
134.0
 31
0.0
  0
LINE
  5
1019
330
1F
100
AcDbEntity
  8
補助
100
AcDbLine
 10
2064.0
 20
4.0
 30
0.0
 11
2064.0
 21
199.0
 31
0.0
  0
TEXT
  5
101A
330
1F
100
AcDbEntity
  8
補助
100
AcDbText
 10
2300.255774665348
 20
16.49999999999999
 30
0.0
 40
40.0
  1
中外交易株式会社
 72
     4
 11
2488.255774665347
 21
36.5
 31
0.0
100
AcDbText
  0
LINE
  5
101B
330
1F
100
AcDbEntity
  8
補助
100
AcDbLine
 10
2184.0
 20
69.0
 30
0.0
 11
2784.0
 21
69.0
 31
0.0
  0
TEXT
  5
101C
330
1F
100
AcDbEntity
  8
0
100
AcDbText
 10
2333.5
 20
149.0
 30
0.0
 40
35.0
  1
CI 650-440
 72
     4
 11
2484.0
 21
166.5
 31
0.0
100
AcDbText
  0
LINE
  5
101D
102
{ACAD_REACTORS
330
102A
102
}
330
1F
100
AcDbEntity
  8
補助
370
     5
100
AcDbLine
 10
2207.843923164362
 20
40.53787547858519
 30
0.0
 11
2183.255774665347
 21
40.53787547858519
 31
0.0
  0
LINE
  5
101E
102
{ACAD_REACTORS
330
102A
102
}
330
1F
100
AcDbEntity
  8
補助
370
     5
100
AcDbLine
 10
2183.255774665347
 20
40.53787547858519
 30
0.0
 11
2183.255774665347
 21
30.53787547858519
 31
0.0
  0
LINE
  5
101F
102
{ACAD_REACTORS
330
102A
102
}
330
1F
100
AcDbEntity
  8
補助
370
     5
100
AcDbLine
 10
2183.255774665347
 20
30.53787547858519
 30
0.0
 11
2207.346428692676
 21
30.53787547858514
 31
0.0
  0
LINE
  5
1020
102
{ACAD_REACTORS
330
102A
102
}
330
1F
100
AcDbEntity
  8
補助
370
     5
100
AcDbLine
 10
2210.641894042939
 20
56.5
 30
0.0
 11
2210.641894042939
 21
16.5
 31
0.0
  0
LINE
  5
1021
102
{ACAD_REACTORS
330
102A
102
}
330
1F
100
AcDbEntity
  8
補助
370
     5
100
AcDbLine
 10
2210.641894042939
 20
16.5
 30
0.0
 11
2245.64189404294
 21
16.5
 31
0.0
  0
LINE
  5
1022
102
{ACAD_REACTORS
330
102A
102
}
330
1F
100
AcDbEntity
  8
補助
370
     5
100
AcDbLine
 10
2245.64189404294
 20
16.5
 30
0.0
 11
2210.641894042939
 21
36.5
 31
0.0
  0
LINE
  5
1023
102
{ACAD_REACTORS
330
102A
102
}
330
1F
100
AcDbEntity
  8
補助
370
     5
100
AcDbLine
 10
2210.641894042939
 20
36.5
 30
0.0
 11
2245.64189404294
 21
56.5
 31
0.0
  0
LINE
  5
1024
102
{ACAD_REACTORS
330
102A
102
}
330
1F
100
AcDbEntity
  8
補助
370
     5
100
AcDbLine
 10
2245.64189404294
 20
56.5
 30
0.0
 11
2210.641894042939
 21
56.5
 31
0.0
  0
LINE
  5
1025
102
{ACAD_REACTORS
330
102A
102
}
330
1F
100
AcDbEntity
  8
補助
370
     5
100
AcDbLine
 10
2276.75434681301
 20
40.53787547858519
 30
0.0
 11
2252.166198313995
 21
40.53787547858519
 31
0.0
  0
LINE
  5
1026
102
{ACAD_REACTORS
330
102A
102
}
330
1F
100
AcDbEntity
  8
補助
370
     5
100
AcDbLine
 10
2252.166198313995
 20
40.53787547858519
 30
0.0
 11
2252.166198313995
 21
30.53787547858519
 31
0.0
  0
LINE
  5
1027
102
{ACAD_REACTORS
330
102A
102
}
330
1F
100
AcDbEntity
  8
補助
370
     5
100
AcDbLine
 10
2252.166198313995
 20
30.53787547858519
 30
0.0
 11
2276.256852341323
 21
30.53787547858514
 31
0.0
  0
ARC
  5
1028
102
{ACAD_REACTORS
330
102A
102
}
330
1F
100
AcDbEntity
  8
補助
370
     5
100
AcDbCircle
 10
2188.255774665348
 20
36.5
 30
0.0
 40
20.0
100
AcDbArc
 50
11.6477236670746
 51
342.6561058784882
  0
ARC
  5
1029
102
{ACAD_REACTORS
330
102A
102
}
330
1F
100
AcDbEntity
  8
補助
370
     5
100
AcDbCircle
 10
2257.166198313996
 20
36.5
 30
0.0
 40
20.0
100
AcDbArc
 50
11.6477236670746
 51
342.6561058784882
  0
HATCH
  5
102A
330
1F
100
AcDbEntity
  8
補助
100
AcDbHatch
 10
0.0
 20
0.0
 30
0.0
210
0.0
220
0.0
230
1.0
  2
SOLID
 70
     1
 71
     1
 91
        3
 92
        1
 93
        4
 72
     2
 10
2257.166198313996
 20
36.5
 40
20.0
 50
11.6477236670746
 51
342.6561058784882
 73
     1
 72
     1
 10
2276.256852341323
 20
30.53787547858514
 11
2252.166198313995
 21
30.53787547858519
 72
     1
 10
2252.166198313995
 20
30.53787547858519
 11
2252.166198313995
 21
40.53787547858519
 72
     1
 10
2252.166198313995
 20
40.53787547858519
 11
2276.75434681301
 21
40.53787547858519
 97
        4
330
1029
330
1027
330
1026
330
1025
 92
        1
 93
        4
 72
     2
 10
2188.255774665348
 20
36.5
 40
20.0
 50
11.6477236670746
 51
342.6561058784882
 73
     1
 72
     1
 10
2207.346428692676
 20
30.53787547858514
 11
2183.255774665347
 21
30.53787547858519
 72
     1
 10
2183.255774665347
 20
30.53787547858519
 11
2183.255774665347
 21
40.53787547858519
 72
     1
 10
2183.255774665347
 20
40.53787547858519
 11
2207.843923164362
 21
40.53787547858519
 97
        4
330
1028
330
101F
330
101E
330
101D
 92
        1
 93
        5
 72
     1
 10
2245.64189404294
 20
56.5
 11
2210.641894042939
 21
56.5
 72
     1
 10
2210.641894042939
 20
56.5
 11
2210.641894042939
 21
16.5
 72
     1
 10
2210.641894042939
 20
16.5
 11
2245.64189404294
 21
16.5
 72
     1
 10
2245.64189404294
 20
16.5
 11
2210.641894042939
 21
36.5
 72
     1
 10
2210.641894042939
 20
36.5
 11
2245.64189404294
 21
56.5
 97
        5
330
1024
330
1020
330
1021
330
1022
330
1023
 75
     0
 76
     1
 98
        1
 10
-60.0
 20
0.0
  0
LINE
  5
102B
330
1F
100
AcDbEntity
  8
補助
100
AcDbLine
 10
2184.0
 20
69.0
 30
0.0
 11
2184.0
 21
199.0
 31
0.0
  0
TEXT
  5
102C
330
1F
100
AcDbEntity
  8
0
100
AcDbText
 10
2430.916666666667
 20
84.0
 30
0.0
 40
35.0
  1
1：10
 72
     4
 11
2484.0
 21
101.5
 31
0.0
100
AcDbText
  0
LINE
  5
102D
330
1F
100
AcDbEntity
  8
補助
100
AcDbLine
 10
2784.0
 20
69.0
 30
0.0
 11
2784.0
 21
134.0
 31
0.0
  0
LINE
  5
102E
330
1F
100
AcDbEntity
  8
補助
100
AcDbLine
 10
2784.0
 20
134.0
 30
0.0
 11
2784.0
 21
199.0
 31
0.0
  0
LINE
  5
102F
330
1F
100
AcDbEntity
  8
補助
100
AcDbLine
 10
2784.0
 20
4.0
 30
0.0
 11
2784.0
 21
69.0
 31
0.0
  0
LINE
  5
107E
330
1F
100
AcDbEntity
  8
実形
100
AcDbLine
 10
608.9912121500626
 20
807.8941739936862
 30
0.0
 11
488.7869812788949
 21
807.8941739936862
 31
0.0
  0
LINE
  5
107F
330
1F
100
AcDbEntity
  8
実形
100
AcDbLine
 10
608.9912121500626
 20
617.8941739936862
 30
0.0
 11
488.7869812788949
 21
617.8941739936864
 31
0.0
  0
LINE
  5
1080
330
1F
100
AcDbEntity
  8
実形
100
AcDbLine
 10
608.9912121500628
 20
607.8941739936863
 30
0.0
 11
555.7869812788948
 21
607.8941739936863
 31
0.0
  0
TEXT
  5
1081
330
1F
100
AcDbEntity
  8
寸法
 62
     0
370
    18
100
AcDbText
 10
475.4956537517164
 20
676.6146769068446
 30
0.0
 40
25.0
  1
190
 50
90.0
100
AcDbText
  0
LINE
  5
1082
330
1F
100
AcDbEntity
  8
実形
100
AcDbLine
 10
488.7869812788949
 20
807.8941739936862
 30
0.0
 11
488.7869812788949
 21
617.8941739936862
 31
0.0
  0
TEXT
  5
1083
330
1F
100
AcDbEntity
  8
寸法
 62
     0
370
    18
100
AcDbText
 10
487.3324528489891
 20
806.2940833833954
 30
0.0
 40
3.0
  1
●
100
AcDbText
  0
TEXT
  5
1084
330
1F
100
AcDbEntity
  8
寸法
 62
     0
370
    18
100
AcDbText
 10
487.4024096695855
 20
616.3645174655112
 30
0.0
 40
3.0
  1
●
100
AcDbText
  0
TEXT
  5
1085
330
1F
100
AcDbEntity
  8
寸法
 62
     0
370
    18
100
AcDbText
 10
536.3253402376924
 20
622.1614051034649
 30
0.0
 40
25.0
  1
15
 50
90.0
100
AcDbText
  0
LINE
  5
1086
330
1F
100
AcDbEntity
  8
実形
 62
     0
100
AcDbLine
 10
608.9912121500626
 20
632.8941739936862
 30
0.0
 11
555.7869812788948
 21
632.894173993686
 31
0.0
  0
LINE
  5
1087
330
1F
100
AcDbEntity
  8
実形
 62
     0
100
AcDbLine
 10
555.7869812788948
 20
632.8941739936859
 30
0.0
 11
555.7869812788948
 21
617.8941739936862
 31
0.0
  0
TEXT
  5
1088
330
1F
100
AcDbEntity
  8
寸法
 62
     0
370
    18
100
AcDbText
 10
554.4326202539057
 20
616.6062941195632
 30
0.0
 40
3.0
  1
●
100
AcDbText
  0
TEXT
  5
1089
330
1F
100
AcDbEntity
  8
寸法
 62
     0
370
    18
100
AcDbText
 10
554.298841172095
 20
631.5834033783885
 30
0.0
 40
3.0
  1
●
100
AcDbText
  0
LINE
  5
108A
330
1F
100
AcDbEntity
  8
実形
100
AcDbLine
 10
555.7869812788948
 20
617.8941739936862
 30
0.0
 11
555.7869812788948
 21
607.8941739936863
 31
0.0
  0
TEXT
  5
108B
330
1F
100
AcDbEntity
  8
寸法
 62
     0
370
    18
100
AcDbText
 10
554.386897772675
 20
606.4407780773436
 30
0.0
 40
3.0
  1
●
100
AcDbText
  0
TEXT
  5
108C
330
1F
100
AcDbEntity
  8
寸法
 62
     0
370
    18
100
AcDbText
 10
535.906615433698
 20
586.5447986766875
 30
0.0
 40
25.0
  1
7
 50
90.0
100
AcDbText
  0
LINE
  5
108D
330
1F
100
AcDbEntity
  8
実形
100
AcDbLine
 10
608.9912121500629
 20
617.8941739936862
 30
0.0
 11
488.7869812788949
 21
617.8941739936864
 31
0.0
  0
DIMENSION
  5
10B1
330
1F
100
AcDbEntity
  8
寸法
100
AcDbDimension
  2
*D18
 10
2011.35508292055
 20
1134.147597603774
 30
0.0
 11
2018.855082920551
 21
1134.147597603774
 31
0.0
 70
    32
  1
 
 71
     5
 42
15.0
  3
ISO-25
100
AcDbAlignedDimension
 13
2026.35508292055
 23
1255.054331641209
 33
0.0
 14
2011.35508292055
 24
1255.054331641209
 34
0.0
100
AcDbRotatedDimension
1001
ACAD
1000
DSTYLE
1002
{
1070
    41
1040
25.0
1070
   371
1070
    18
1002
}
  0
DIMENSION
  5
10B2
330
1F
100
AcDbEntity
  8
寸法
100
AcDbDimension
  2
*D19
 10
1836.35508292055
 20
1070.775910704731
 30
0.0
 11
1931.355082920551
 21
1089.525910704731
 31
0.0
 70
    32
 71
     5
 42
190.0
  3
ISO-25
100
AcDbAlignedDimension
 13
2026.35508292055
 23
1231.760370420771
 33
0.0
 14
1836.35508292055
 24
1253.353707349996
 34
0.0
100
AcDbRotatedDimension
1001
ACAD
1000
DSTYLE
1002
{
1070
    41
1040
25.0
1070
   371
1070
    18
1002
}
  0
TEXT
  5
10B3
330
1F
100
AcDbEntity
  8
寸法
370
    18
100
AcDbText
 10
1962.535185034234
 20
1146.382770386591
 30
0.0
 40
25.0
  1
15
100
AcDbText
  0
TEXT
  5
10B4
330
1F
100
AcDbEntity
  8
寸法
370
    18
100
AcDbText
 10
2046.225821159924
 20
1145.132489784553
 30
0.0
 40
25.0
  1
7
100
AcDbText
  0
LINE
  5
10B5
330
1F
100
AcDbEntity
  8
実形
100
AcDbLine
 10
2026.35508292055
 20
1134.147597603774
 30
0.0
 11
2026.35508292055
 21
1190.054331641208
 31
0.0
  0
LINE
  5
10B6
330
1F
100
AcDbEntity
  8
実形
100
AcDbLine
 10
2026.35508292055
 20
1134.147597603774
 30
0.0
 11
2036.35508292055
 21
1134.147597603774
 31
0.0
  0
LINE
  5
10B7
330
1F
100
AcDbEntity
  8
実形
100
AcDbLine
 10
2036.355082920551
 20
1190.054331641208
 30
0.0
 11
2036.355082920551
 21
1134.147597603774
 31
0.0
  0
TEXT
  5
10B8
330
1F
100
AcDbEntity
  8
寸法
 62
     0
370
    18
100
AcDbText
 10
2034.031523975768
 20
1131.733056813018
 30
0.0
 40
5.0
  1
●
100
AcDbText
  0
LINE
  5
11E9
330
1F
100
AcDbEntity
  8
補助
100
AcDbLine
 10
2784.0
 20
1959.0
 30
0.0
 11
2019.387286519283
 21
1959.000000000001
 31
0.0
  0
LINE
  5
11EA
330
1F
100
AcDbEntity
  8
補助
100
AcDbLine
 10
2784.0
 20
1894.0
 30
0.0
 11
2019.387286519283
 21
1894.0
 31
0.0
  0
LINE
  5
11EB
330
1F
100
AcDbEntity
  8
補助
100
AcDbLine
 10
2202.547653420927
 20
1894.0
 30
0.0
 11
2202.547653420927
 21
2024.0
 31
0.0
  0
LINE
  5
11EC
330
1F
100
AcDbEntity
  8
補助
100
AcDbLine
 10
2019.387286519283
 20
1894.0
 30
0.0
 11
2019.387286519283
 21
2024.0
 31
0.0
  0
TEXT
  5
11ED
330
1F
100
AcDbEntity
  8
補助
100
AcDbText
 10
2050.295698850121
 20
1976.328571428572
 30
0.0
 40
30.0
  1
部品名
  7
明朝
 72
     4
 11
2116.124270278692
 21
1991.5
 31
0.0
100
AcDbText
  0
TEXT
  5
11EE
330
1F
100
AcDbEntity
  8
補助
100
AcDbText
 10
2627.614285714286
 20
1976.071428571429
 30
0.0
 40
30.0
  1
厚さ
  7
明朝
 72
     4
 11
2671.5
 21
1991.5
 31
0.0
100
AcDbText
  0
LINE
  5
11EF
330
1F
100
AcDbEntity
  8
補助
100
AcDbLine
 10
2559.0
 20
1894.0
 30
0.0
 11
2559.0
 21
2024.0
 31
0.0
  0
TEXT
  5
11F0
330
1F
100
AcDbEntity
  8
補助
100
AcDbText
 10
2338.490869919937
 20
1975.947979478155
 30
0.0
 40
30.0
  1
材質
  7
明朝
 72
     4
 11
2382.376584205651
 21
1991.119408049583
 31
0.0
100
AcDbText
  0
TEXT
  5
11F1
330
1F
100
AcDbEntity
  8
実形
100
AcDbText
 10
2048.227810657788
 20
1910.557142857143
 30
0.0
 40
30.0
  1
ボウル
  7
明朝
 72
     4
 11
2114.056382086359
 21
1926.5
 31
0.0
100
AcDbText
  0
TEXT
  5
11F2
330
1F
100
AcDbEntity
  8
実形
100
AcDbText
 10
2594.700000000001
 20
1911.842857142857
 30
0.0
 40
30.0
  1
0.7ｍｍ
  7
明朝
 72
     4
 11
2671.500000000001
 21
1926.5
 31
0.0
100
AcDbText
  0
TEXT
  5
11F3
330
1F
100
AcDbEntity
  8
実形
100
AcDbText
 10
2261.016869107866
 20
1910.728571428572
 30
0.0
 40
30.0
  1
SUS304（BA）
  7
明朝
 72
     4
 11
2392.674011965008
 21
1926.5
 31
0.0
100
AcDbText
  0
LINE
  5
11F4
330
1F
100
AcDbEntity
  8
補助
100
AcDbLine
 10
104.0
 20
2024.0
 30
0.0
 11
104.0
 21
4.0
 31
0.0
  0
VIEWPORT
  5
2E
102
{ACAD_XDICTIONARY
360
122E
102
}
330
1B
100
AcDbEntity
 67
     1
  8
0
100
AcDbViewport
 10
144.7270812988281
 20
101.2295806407928
 30
0.0
 40
411.6736216682419
 41
222.1517806396485
 68
     1
 69
     1
 12
144.7270812988281
 22
101.2295806407928
 13
0.0
 23
0.0
 14
10.0
 24
10.0
 15
10.0
 25
10.0
 16
0.0
 26
0.0
 36
1.0
 17
0.0
 27
0.0
 37
0.0
 42
50.0
 43
0.0
 44
0.0
 45
222.1517806396485
 50
0.0
 51
0.0
 72
   100
 90
    32800
  1

281
     0
 71
     1
 74
     0
110
0.0
120
0.0
130
0.0
111
1.0
121
0.0
131
0.0
112
0.0
122
1.0
132
0.0
 79
     0
146
0.0
  0
VIEWPORT
  5
30
102
{ACAD_XDICTIONARY
360
1230
102
}
330
1B
100
AcDbEntity
 67
     1
  8
0
100
AcDbViewport
 10
139.2237563133239
 20
101.2295821905136
 30
0.0
 40
222.7580101013184
 41
161.9673315048218
 68
     2
 69
     2
 12
210.0
 22
148.5
 13
0.0
 23
0.0
 14
10.0
 24
10.0
 15
10.0
 25
10.0
 16
0.0
 26
0.0
 36
1.0
 17
0.0
 27
0.0
 37
0.0
 42
50.0
 43
0.0
 44
0.0
 45
309.0686705647124
 50
0.0
 51
0.0
 72
   100
 90
    32864
  1

281
     0
 71
     1
 74
     0
110
0.0
120
0.0
130
0.0
111
1.0
121
0.0
131
0.0
112
0.0
122
1.0
132
0.0
 79
     0
146
0.0
  0
ENDSEC
  0
SECTION
  2
OBJECTS
  0
DICTIONARY
  5
C
330
0
100
AcDbDictionary
281
     1
  3
ACAD_COLOR
350
1051
  3
ACAD_GROUP
350
D
  3
ACAD_LAYOUT
350
1A
  3
ACAD_MATERIAL
350
1050
  3
ACAD_MLINESTYLE
350
17
  3
ACAD_PLOTSETTINGS
350
19
  3
ACAD_PLOTSTYLENAME
350
E
  3
ACAD_TABLESTYLE
350
1052
  3
AcadDim
350
124
  3
ACDBHEADERROUNDTRIPXREC
350
1227
  3
AcDbVariableDictionary
350
1177
  0
DICTIONARY
  5
11C1
330
2
100
AcDbDictionary
280
     1
281
     1
  3
ACAD_LAYERFILTERS
360
11C3
  3
ACAD_LAYERSTATES
360
11C4
  3
ACLYDICTIONARY
360
11C2
  0
DICTIONARY
  5
11F5
330
1F
100
AcDbDictionary
280
     1
281
     1
  3
ACAD_SORTENTS
360
11F6
  0
DICTIONARY
  5
122E
330
2E
100
AcDbDictionary
280
     1
281
     1
  3
ACAD_XREC_ROUNDTRIP
360
122F
  0
DICTIONARY
  5
1230
330
30
100
AcDbDictionary
280
     1
281
     1
  3
ACAD_XREC_ROUNDTRIP
360
1231
  0
DICTIONARY
  5
1051
102
{ACAD_REACTORS
330
C
102
}
330
C
100
AcDbDictionary
281
     1
  0
DICTIONARY
  5
D
102
{ACAD_REACTORS
330
C
102
}
330
C
100
AcDbDictionary
281
     1
  0
DICTIONARY
  5
1A
102
{ACAD_REACTORS
330
C
102
}
330
C
100
AcDbDictionary
281
     1
  3
Model
350
22
  3
ﾚｲｱｳﾄ1
350
1E
  3
ﾚｲｱｳﾄ2
350
26
  0
DICTIONARY
  5
1050
102
{ACAD_REACTORS
330
C
102
}
330
C
100
AcDbDictionary
281
     1
  0
DICTIONARY
  5
17
102
{ACAD_REACTORS
330
C
102
}
330
C
100
AcDbDictionary
281
     1
  3
Standard
350
18
  0
DICTIONARY
  5
19
102
{ACAD_REACTORS
330
C
102
}
330
C
100
AcDbDictionary
281
     1
  0
ACDBDICTIONARYWDFLT
  5
E
102
{ACAD_REACTORS
330
C
102
}
330
C
100
AcDbDictionary
281
     1
  3
Normal
350
F
100
AcDbDictionaryWithDefault
340
F
  0
DICTIONARY
  5
1052
102
{ACAD_REACTORS
330
C
102
}
330
C
100
AcDbDictionary
281
     1
  3
Standard
350
1053
  0
XRECORD
  5
124
102
{ACAD_REACTORS
330
C
102
}
330
C
100
AcDbXrecord
280
     1
 90
   990106
  3

 60
     0
 61
     0
 62
     1
 63
     3
 64
     0
 65
     0
 66
     0
 67
     3
 68
     1
 69
     0
 70
     0
 71
     0
 72
     0
 40
30.0
170
     0
  0
DICTIONARY
  5
1227
102
{ACAD_REACTORS
330
C
102
}
330
C
100
AcDbDictionary
281
     1
  0
DICTIONARY
  5
1177
102
{ACAD_REACTORS
330
C
102
}
330
C
100
AcDbDictionary
281
     1
  3
CTABLESTYLE
350
1178
  3
DIMASSOC
350
1218
  3
PROJECTNAME
350
1219
  0
DICTIONARY
  5
11C3
102
{ACAD_REACTORS
330
11C1
102
}
330
11C1
100
AcDbDictionary
281
     1
  0
DICTIONARY
  5
11C4
102
{ACAD_REACTORS
330
11C1
102
}
330
11C1
100
AcDbDictionary
281
     1
  0
DICTIONARY
  5
11C2
102
{ACAD_REACTORS
330
11C1
102
}
330
11C1
100
AcDbDictionary
281
     1
1001
ACAD
1000
<All
  0
SORTENTSTABLE
  5
11F6
102
{ACAD_REACTORS
330
11F5
102
}
330
11F5
100
AcDbSortentsTable
330
1F
331
1087
  5
1088
331
7D1
  5
7D2
331
8C9
  5
F11
331
2E6
  5
2EB
331
3DC
  5
3E9
331
1018
  5
1019
331
2EE
  5
2F9
331
10B7
  5
10B8
331
11E9
  5
11EA
331
11F1
  5
11F2
331
2FE
  5
301
331
F11
  5
F12
331
1020
  5
1021
331
F19
  5
F1A
331
395
  5
397
331
306
  5
307
331
1028
  5
1029
331
4A3
  5
4F8
331
F21
  5
F22
331
F29
  5
F2A
331
43C
  5
43D
331
F31
  5
F32
331
1080
  5
1081
331
7D2
  5
7D3
331
1088
  5
1089
331
1019
  5
101A
331
11EA
  5
11EB
331
11F2
  5
11F3
331
A0
  5
A5
331
1021
  5
1022
331
F12
  5
F19
331
1029
  5
102A
331
494
  5
495
331
307
  5
308
331
F1A
  5
F1B
331
F22
  5
F23
331
F2A
  5
F2B
331
43D
  5
44B
331
F32
  5
F33
331
1081
  5
1082
331
1089
  5
108A
331
7D3
  5
8C9
331
3CE
  5
3DC
331
10B1
  5
10B2
331
101A
  5
101B
331
11EB
  5
11EC
331
11F3
  5
11F4
331
1022
  5
1023
331
102A
  5
102B
331
3F6
  5
43C
331
397
  5
398
331
308
  5
309
331
495
  5
4A3
331
F1B
  5
F1C
331
F23
  5
F24
331
F2B
  5
F2C
331
3AF
  5
3B1
331
F33
  5
1014
331
1082
  5
1083
331
108A
  5
108B
331
505
  5
569
331
368
  5
395
331
10B2
  5
10B3
331
101B
  5
101C
331
11EC
  5
11ED
331
11F4
  5
A0
331
2F9
  5
2FA
331
1023
  5
1024
331
301
  5
306
331
102B
  5
102C
331
F1C
  5
F1D
331
309
  5
30A
331
398
  5
3AF
331
10B8
  5
11CA
331
F24
  5
F25
331
F2C
  5
F2D
331
1083
  5
1084
331
108B
  5
108C
331
1014
  5
1015
331
10B3
  5
10B4
331
101C
  5
101D
331
11ED
  5
11EE
331
2FA
  5
2FB
331
1024
  5
1025
331
102C
  5
102D
331
30A
  5
30B
331
F1D
  5
F1E
331
33A
  5
33B
331
F25
  5
F26
331
F2D
  5
F2E
331
3B1
  5
3CE
331
1084
  5
1085
331
458
  5
494
331
108C
  5
108D
331
10B4
  5
10B5
331
1015
  5
1016
331
2EB
  5
2EE
331
101D
  5
101E
331
11EE
  5
11EF
331
9C
  5
9C
331
2FB
  5
2FE
331
3E9
  5
3F6
331
1025
  5
1026
331
102D
  5
102E
331
F1E
  5
F1F
331
30B
  5
33A
331
57F
  5
7CF
331
F26
  5
F27
331
33B
  5
33C
331
F2E
  5
F2F
331
4F8
  5
505
331
35B
  5
368
331
7CF
  5
7D0
331
1085
  5
1086
331
108D
  5
10B1
331
1016
  5
1017
331
10B5
  5
10B6
331
11EF
  5
11F0
331
101E
  5
101F
331
A5
  5
2E6
331
1026
  5
1027
331
102E
  5
102F
331
F1F
  5
F20
331
33C
  5
33D
331
F27
  5
F28
331
F2F
  5
F30
331
107E
  5
107F
331
1086
  5
1087
331
7D0
  5
7D1
331
10B6
  5
10B7
331
569
  5
57F
331
1017
  5
1018
331
11F0
  5
11F1
331
101F
  5
1020
331
1027
  5
1028
331
F20
  5
F21
331
102F
  5
107E
331
F28
  5
F29
331
33D
  5
35B
331
107F
  5
1080
331
F30
  5
F31
331
44B
  5
458
  0
XRECORD
  5
122F
102
{ACAD_REACTORS
330
122E
102
}
330
122E
100
AcDbXrecord
280
     1
102
SHADEPLOT
 70
     0
  0
XRECORD
  5
1231
102
{ACAD_REACTORS
330
1230
102
}
330
1230
100
AcDbXrecord
280
     1
102
SHADEPLOT
 70
     0
  0
LAYOUT
  5
22
102
{ACAD_XDICTIONARY
360
122A
102
}
102
{ACAD_REACTORS
330
1A
102
}
330
1A
100
AcDbPlotSettings
  1

  2
EPSON PM-800C
  4
A4
  6

 40
3.757083177566528
 41
14.7637300491333
 42
3.757080078125
 43
3.757080078125
 44
209.9733276367187
 45
296.9683227539062
 46
0.0
 47
0.0
 48
0.0
 49
0.0
140
0.0
141
0.0
142
1.0
143
10.0
 70
 11952
 72
     1
 73
     1
 74
     2
  7

 75
    20
147
0.1
148
0.0
149
0.0
100
AcDbLayout
  1
Model
 70
     1
 71
     0
 10
0.0
 20
0.0
 11
12.0
 21
9.0
 12
0.0
 22
0.0
 32
0.0
 14
0.0
 24
0.0
 34
0.0
 15
0.0
 25
0.0
 35
0.0
146
0.0
 13
0.0
 23
0.0
 33
0.0
 16
1.0
 26
0.0
 36
0.0
 17
0.0
 27
1.0
 37
0.0
 76
     0
330
1F
  0
LAYOUT
  5
1E
102
{ACAD_XDICTIONARY
360
1228
102
}
102
{ACAD_REACTORS
330
1A
102
}
330
1A
100
AcDbPlotSettings
  1

  2
EPSON PM-800C
  4
A4
  6

 40
3.757083177566528
 41
14.7637300491333
 42
3.757080078125
 43
3.757080078125
 44
209.9733276367187
 45
296.9683227539062
 46
0.0
 47
0.0
 48
0.0
 49
0.0
140
0.0
141
0.0
142
1.0
143
1.0
 70
   688
 72
     1
 73
     1
 74
     5
  7

 75
    16
147
1.0
148
0.0
149
0.0
100
AcDbLayout
  1
ﾚｲｱｳﾄ1
 70
     1
 71
     1
 10
-3.757080078125
 20
-3.757083177566528
 11
293.2112426757813
 21
206.2162444591522
 12
0.0
 22
0.0
 32
0.0
 14
27.8447512626648
 24
20.24591643810271
 34
0.0
 15
250.6027613639831
 25
182.2132479429245
 35
0.0
146
0.0
 13
0.0
 23
0.0
 33
0.0
 16
1.0
 26
0.0
 36
0.0
 17
0.0
 27
1.0
 37
0.0
 76
     0
330
1B
331
2E
  0
LAYOUT
  5
26
102
{ACAD_XDICTIONARY
360
122C
102
}
102
{ACAD_REACTORS
330
1A
102
}
330
1A
100
AcDbPlotSettings
  1

  2
EPSON PM-800C
  4

  6

 40
0.0
 41
0.0
 42
0.0
 43
0.0
 44
0.0
 45
0.0
 46
0.0
 47
0.0
 48
0.0
 49
0.0
140
0.0
141
0.0
142
1.0
143
1.0
 70
   688
 72
     0
 73
     0
 74
     5
  7

 75
    16
147
1.0
148
0.0
149
0.0
100
AcDbLayout
  1
ﾚｲｱｳﾄ2
 70
     1
 71
     2
 10
0.0
 20
0.0
 11
12.0
 21
9.0
 12
0.0
 22
0.0
 32
0.0
 14
0.0
 24
0.0
 34
0.0
 15
0.0
 25
0.0
 35
0.0
146
0.0
 13
0.0
 23
0.0
 33
0.0
 16
1.0
 26
0.0
 36
0.0
 17
0.0
 27
1.0
 37
0.0
 76
     0
330
23
  0
MLINESTYLE
  5
18
102
{ACAD_REACTORS
330
17
102
}
330
17
100
AcDbMlineStyle
  2
STANDARD
 70
     0
  3

 62
   256
 51
90.0
 52
90.0
 71
     2
 49
0.5
 62
   256
  6
BYLAYER
 49
-0.5
 62
   256
  6
BYLAYER
  0
ACDBPLACEHOLDER
  5
F
102
{ACAD_REACTORS
330
E
102
}
330
E
  0
TABLESTYLE
  5
1053
102
{ACAD_REACTORS
330
1052
102
}
330
1052
100
AcDbTableStyle
  3
Standard
 70
     0
 71
     0
 40
1.5
 41
1.5
280
     0
281
     0
  7
Standard
140
4.5
170
     2
 62
     0
 63
     7
283
     0
274
    -2
284
     1
 64
     0
275
    -2
285
     1
 65
     0
276
    -2
286
     1
 66
     0
277
    -2
287
     1
 67
     0
278
    -2
288
     1
 68
     0
279
    -2
289
     1
 69
     0
  7
Standard
140
6.0
170
     5
 62
     0
 63
     7
283
     0
274
    -2
284
     1
 64
     0
275
    -2
285
     1
 65
     0
276
    -2
286
     1
 66
     0
277
    -2
287
     1
 67
     0
278
    -2
288
     1
 68
     0
279
    -2
289
     1
 69
     0
  7
Standard
140
4.5
170
     5
 62
     0
 63
     7
283
     0
274
    -2
284
     1
 64
     0
275
    -2
285
     1
 65
     0
276
    -2
286
     1
 66
     0
277
    -2
287
     1
 67
     0
278
    -2
288
     1
 68
     0
279
    -2
289
     1
 69
     0
  0
DICTIONARYVAR
  5
1178
102
{ACAD_REACTORS
330
1177
102
}
330
1177
100
DictionaryVariables
280
     0
  1
STANDARD
  0
DICTIONARYVAR
  5
1218
102
{ACAD_REACTORS
330
1177
102
}
330
1177
100
DictionaryVariables
280
     0
  1
1
  0
DICTIONARYVAR
  5
1219
102
{ACAD_REACTORS
330
1177
102
}
330
1177
100
DictionaryVariables
280
     0
  1

  0
DICTIONARY
  5
122A
330
22
100
AcDbDictionary
280
     1
281
     1
  3
ACAD_XREC_ROUNDTRIP
360
122B
  0
DICTIONARY
  5
1228
330
1E
100
AcDbDictionary
280
     1
281
     1
  3
ACAD_XREC_ROUNDTRIP
360
1229
  0
DICTIONARY
  5
122C
330
26
100
AcDbDictionary
280
     1
281
     1
  3
ACAD_XREC_ROUNDTRIP
360
122D
  0
XRECORD
  5
122B
102
{ACAD_REACTORS
330
122A
102
}
330
122A
100
AcDbXrecord
280
     1
102
SHADEPLOT
 70
     0
102
SHADEPLOTRESLEVEL
 70
     2
102
SHADEPLOTCUSTOMDPI
 70
   300
  0
XRECORD
  5
1229
102
{ACAD_REACTORS
330
1228
102
}
330
1228
100
AcDbXrecord
280
     1
102
SHADEPLOT
 70
     0
102
SHADEPLOTRESLEVEL
 70
     2
102
SHADEPLOTCUSTOMDPI
 70
   300
  0
XRECORD
  5
122D
102
{ACAD_REACTORS
330
122C
102
}
330
122C
100
AcDbXrecord
280
     1
102
SHADEPLOT
 70
     0
102
SHADEPLOTRESLEVEL
 70
     2
102
SHADEPLOTCUSTOMDPI
 70
   300
  0
ENDSEC
  0
EOF
